找回密码

蓝光电影网

查看: 12|回复: 0

[惊悚] 战争幽灵/战争中的鬼故事 Ghosts.Of.War.2020.720p.BluRay.x264-FREEMAN 2.60GB

[复制链接]
蓝光币
382
发表于 2020-11-8 15:24:01 | 显示全部楼层 |阅读模式


◎译  名 战争鬼魂/战争中的鬼故事(台)
◎片  名 Ghosts of War
◎年  代 2020
◎产  地 英国
◎类  别 惊悚 / 可骇 / 战争
◎语  言 英语
◎上映日期 2020-07-17(英国)
◎IMDb评分  5.4/10 from 3437 users
◎IMDb链接  https://www.imdb.com/title/tt6508228/
◎豆瓣评分 6.6/10 from 10284 users
◎豆瓣链接 https://movie.douban.com/subject/26969541/
◎片  长 95分钟
◎导  演 埃里克·布雷斯 Eric Bress
◎编  剧 埃里克·布雷斯 Eric Bress
◎主  演 布伦顿·思韦茨 Brenton Thwaites
       西奥·罗西 Theo Rossi
       凯尔·加尔纳 Kyle Gallner
       斯盖拉·阿斯丁 Skylar Astin
       阿兰·里奇森 Alan Ritchson
       莱拉·班基 Laila Banki
       内森·库珀 Nathan Cooper
       丽贝卡·弗林·怀特 Rebecca Flinn-White
       卡洛延·赫里斯托夫 Kaloyan Hristov
       亚历山大·贝兰·凯什卡 Alexander Behrang Keshtkar
       珊农·麦克凯恩 Shannon McKain
       亚尼莎·米哈伊洛娃 Yanitsa Mihailova
       马修·瑞斯 Matthew Reese
       肖恩·托布  Shaun Toub
       比利·赞恩 Billy Zane
◎标  签 可骇 | 惊悚 | 战争 | 科幻 | 灵异 | 超自然 | 2020 | 美国
◎简  介


  故事以二战末期为布景,报告五人美军小队受命保护一座法国古堡。不意城堡除了残余的敌军,一股超自然的邪恶气力也正在蓄势待发。小队众人也面临着比疆场上加倍残暴的威胁。
  1. Video
  2. ID                                       : 1
  3. Format                                   : AVC
  4. Format/Info                              : Advanced Video Codec
  5. Format profile                           : [email protected]
  6. Format settings                          : CABAC / 8 Ref Frames
  7. Format settings, CABAC                   : Yes
  8. Format settings, Reference frames        : 8 frames
  9. Codec ID                                 : V_MPEG4/ISO/AVC
  10. Duration                                 : 1 h 34 min
  11. Bit rate                                 : 3 272 kb/s
  12. Width                                    : 1 280 pixels
  13. Height                                   : 534 pixels
  14. Display aspect ratio                     : 2.40:1
  15. Frame rate mode                          : Constant
  16. Frame rate                               : 24.000 FPS
  17. Color space                              : YUV
  18. Chroma subsampling                       : 4:2:0
  19. Bit depth                                : 8 bits
  20. Scan type                                : Progressive
  21. Bits/(Pixel*Frame)                       : 0.199
  22. Stream size                              : 2.17 GiB (83%)
  23. Writing library                          : x264 core 161 r3018 db0d417
  24. Encoding settings                        : cabac=1 / ref=8 / deblock=1:-3:-3 / analyse=0x3:0x133 / me=umh / subme=9 / psy=1 / psy_rd=1.00:0.00 / mixed_ref=1 / me_range=16 / chroma_me=1 / trellis=2 / 8x8dct=1 / cqm=0 / deadzone=21,11 / fast_pskip=1 / chroma_qp_offset=-2 / threads=17 / lookahead_threads=1 / sliced_threads=0 / nr=0 / decimate=1 / interlaced=0 / bluray_compat=0 / constrained_intra=0 / bframes=3 / b_pyramid=2 / b_adapt=2 / b_bias=0 / direct=3 / weightb=1 / open_gop=0 / weightp=2 / keyint=250 / keyint_min=24 / scenecut=40 / intra_refresh=0 / rc_lookahead=60 / rc=crf / mbtree=1 / crf=17.0 / qcomp=0.60 / qpmin=0 / qpmax=69 / qpstep=4 / ip_ratio=1.40 / aq=3:0.80
  25. Language                                 : English
  26. Default                                  : Yes
  27. Forced                                   : No
  28. Color range                              : Limited
  29. Matrix coefficients                      : BT.709

  30. Audio
  31. ID                                       : 2
  32. Format                                   : AC-3
  33. Format/Info                              : Audio Coding 3
  34. Commercial name                          : Dolby Digital
  35. Codec ID                                 : A_AC3
  36. Duration                                 : 1 h 34 min
  37. Bit rate mode                            : Constant
  38. Bit rate                                 : 640 kb/s
  39. Channel(s)                               : 2 channels
  40. Channel layout                           : L R
  41. Sampling rate                            : 48.0 kHz
  42. Frame rate                               : 31.250 FPS (1536 SPF)
  43. Compression mode                         : Lossy
  44. Stream size                              : 434 MiB (16%)
  45. Title                                    : ac3
  46. Language                                 : English
  47. Service kind                             : Complete Main
  48. Default                                  : Yes
  49. Forced                                   : No

  50. Text #1
  51. ID                                       : 3
  52. Format                                   : UTF-8
  53. Codec ID                                 : S_TEXT/UTF8
  54. Codec ID/Info                            : UTF-8 Plain Text
  55. Duration                                 : 1 h 20 min
  56. Bit rate                                 : 1 b/s
  57. Count of elements                        : 36
  58. Stream size                              : 1.18 KiB (0%)
  59. Title                                    : forced
  60. Language                                 : English
  61. Default                                  : Yes
  62. Forced                                   : No

  63. Text #2
  64. ID                                       : 4
  65. Format                                   : PGS
  66. Muxing mode                              : zlib
  67. Codec ID                                 : S_HDMV/PGS
  68. Codec ID/Info                            : Picture based subtitle format used on BDs/HD-DVDs
  69. Duration                                 : 1 h 26 min
  70. Bit rate                                 : 14.5 kb/s
  71. Count of elements                        : 1456
  72. Stream size                              : 8.98 MiB (0%)
  73. Title                                    : sub
  74. Language                                 : German
  75. Default                                  : No
  76. Forced                                   : No

  77. Menu
  78. 00:00:00.000                             : en:00:00:00.000
  79. 00:02:47.833                             : en:00:02:47.833
  80. 00:09:47.542                             : en:00:09:47.542
  81. 00:19:08.625                             : en:00:19:08.625
  82. 00:22:22.333                             : en:00:22:22.333
  83. 00:25:54.083                             : en:00:25:54.083
  84. 00:29:59.292                             : en:00:29:59.292
  85. 00:36:36.625                             : en:00:36:36.625
  86. 00:46:54.583                             : en:00:46:54.583
  87. 00:51:20.500                             : en:00:51:20.500
  88. 00:56:07.417                             : en:00:56:07.417
  89. 01:03:42.750                             : en:01:03:42.750
  90. 01:08:02.833                             : en:01:08:02.833
  91. 01:15:33.083                             : en:01:15:33.083
  92. 01:23:25.250                             : en:01:23:25.250
  93. 01:27:49.542                             : en:01:27:49.542
复制代码




                                       
                                       

                                       
                                       
                                       




回复

使用道具 举报

懒得打字嘛,点击右侧快捷回复 【右侧内容,后台自定义】
您需要登录后才可以回帖 登录 | 立即加入

本版积分规则

Archiver|小黑屋| 蓝光电影网 |网站地图

Copyright © 2021 Comsenz Inc. Powered by 蓝光电影网

蓝光电影网

本站内容由用户自主分享和转载自互联网,转载目的在于传递更多信息,并不代表本网赞同其观点和对其真实性负责。

如有侵权、违反国家法律政策行为,请联系我们,我们会第一时间及时清除和处理!

举报反馈邮箱:[email protected]

快速回复 返回顶部 返回列表