找回密码

蓝光电影网

查看: 9|回复: 0

[惊悚] 拥有者 The.Owners.2020.720p.BluRay.x264-SOIGNEUR 3.45GB

[复制链接]
蓝光币
382
发表于 2020-11-7 11:12:34 | 显示全部楼层 |阅读模式


◎译  名 具有者
◎片  名 The Owners
◎年  代 2020
◎产  地 美国
◎类  别 惊悚
◎语  言 英语
◎上映日期 2020-09-04(美国)
◎IMDb评分  4.7/10 from 3165 users
◎IMDb链接  https://www.imdb.com/title/tt9806370/
◎豆瓣评分 4.7/10 from 324 users
◎豆瓣链接 https://movie.douban.com/subject/30456382/
◎片  长 92分钟
◎导  演 朱利叶斯·伯格 Julius Berg
◎编  剧 朱利叶斯·伯格 Julius Berg
◎主  演 麦茜·威廉姆斯 Maisie Williams
       丽塔·塔欣厄姆 Rita Tushingham
       西尔维斯特·迈可伊 Sylvester McCoy
       杰克·库兰 Jake Curran
       伊安·肯尼 Ian Kenny
       斯塔奇·希克斯 Stacha Hicks
       Andrew Ellis
◎标  签 惊悚 | 犯罪 | 2020 | 可骇 | 英国 | 美国 | 麦茜·威廉姆斯 | 美国电影
◎简  介


  故事报告三个年轻人去当地医生家里停止盗窃,意想不到的是,医生提早回到了家中。
  1. Video
  2. ID                                       : 1
  3. Format                                   : AVC
  4. Format/Info                              : Advanced Video Codec
  5. Format profile                           : [email protected]
  6. Format settings                          : CABAC / 12 Ref Frames
  7. Format settings, CABAC                   : Yes
  8. Format settings, Reference frames        : 12 frames
  9. Codec ID                                 : V_MPEG4/ISO/AVC
  10. Duration                                 : 1 h 31 min
  11. Bit rate                                 : 4 711 kb/s
  12. Width                                    : 1 280 pixels
  13. Height                                   : 536 pixels
  14. Display aspect ratio                     : 2.40:1
  15. Frame rate mode                          : Constant
  16. Frame rate                               : 24.000 FPS
  17. Color space                              : YUV
  18. Chroma subsampling                       : 4:2:0
  19. Bit depth                                : 8 bits
  20. Scan type                                : Progressive
  21. Bits/(Pixel*Frame)                       : 0.286
  22. Stream size                              : 3.02 GiB (88%)
  23. Writing library                          : x264 core 161 r3027 4121277
  24. Encoding settings                        : cabac=1 / ref=12 / deblock=1:-3:-3 / analyse=0x3:0x133 / me=umh / subme=10 / psy=1 / psy_rd=1.20:0.00 / mixed_ref=1 / me_range=24 / chroma_me=1 / trellis=2 / 8x8dct=1 / cqm=0 / deadzone=21,11 / fast_pskip=0 / chroma_qp_offset=-2 / threads=6 / lookahead_threads=1 / sliced_threads=0 / nr=0 / decimate=0 / interlaced=0 / bluray_compat=0 / constrained_intra=0 / bframes=8 / b_pyramid=2 / b_adapt=2 / b_bias=0 / direct=3 / weightb=1 / open_gop=0 / weightp=2 / keyint=250 / keyint_min=24 / scenecut=40 / intra_refresh=0 / rc=crf / mbtree=0 / crf=16.0 / qcomp=0.60 / qpmin=0 / qpmax=69 / qpstep=4 / ip_ratio=1.40 / pb_ratio=1.30 / aq=3:0.90
  25. Default                                  : Yes
  26. Forced                                   : No
  27. Color range                              : Limited
  28. Matrix coefficients                      : BT.709

  29. Audio
  30. ID                                       : 2
  31. Format                                   : AC-3
  32. Format/Info                              : Audio Coding 3
  33. Commercial name                          : Dolby Digital
  34. Codec ID                                 : A_AC3
  35. Duration                                 : 1 h 31 min
  36. Bit rate mode                            : Constant
  37. Bit rate                                 : 640 kb/s
  38. Channel(s)                               : 6 channels
  39. Channel layout                           : L R C LFE Ls Rs
  40. Sampling rate                            : 48.0 kHz
  41. Frame rate                               : 31.250 FPS (1536 SPF)
  42. Compression mode                         : Lossy
  43. Stream size                              : 420 MiB (12%)
  44. Language                                 : English
  45. Service kind                             : Complete Main
  46. Default                                  : Yes
  47. Forced                                   : No

  48. Text #1
  49. ID                                       : 3
  50. Format                                   : PGS
  51. Muxing mode                              : zlib
  52. Codec ID                                 : S_HDMV/PGS
  53. Codec ID/Info                            : Picture based subtitle format used on BDs/HD-DVDs
  54. Duration                                 : 1 h 28 min
  55. Bit rate                                 : 26.0 kb/s
  56. Count of elements                        : 3016
  57. Stream size                              : 16.5 MiB (0%)
  58. Title                                    : SDH
  59. Language                                 : English
  60. Default                                  : No
  61. Forced                                   : No

  62. Text #2
  63. ID                                       : 4
  64. Format                                   : PGS
  65. Muxing mode                              : zlib
  66. Codec ID                                 : S_HDMV/PGS
  67. Codec ID/Info                            : Picture based subtitle format used on BDs/HD-DVDs
  68. Duration                                 : 1 h 26 min
  69. Bit rate                                 : 23.1 kb/s
  70. Count of elements                        : 2640
  71. Stream size                              : 14.3 MiB (0%)
  72. Language                                 : French
  73. Default                                  : No
  74. Forced                                   : No

  75. Text #3
  76. ID                                       : 5
  77. Format                                   : PGS
  78. Muxing mode                              : zlib
  79. Codec ID                                 : S_HDMV/PGS
  80. Codec ID/Info                            : Picture based subtitle format used on BDs/HD-DVDs
  81. Duration                                 : 1 h 28 min
  82. Bit rate                                 : 23.7 kb/s
  83. Count of elements                        : 2804
  84. Stream size                              : 15.0 MiB (0%)
  85. Language                                 : Spanish
  86. Default                                  : No
  87. Forced                                   : No

  88. Menu
  89. 00:00:00.000                             : en:Chapter 01
  90. 00:10:19.583                             : en:Chapter 02
  91. 00:24:54.167                             : en:Chapter 03
  92. 00:30:34.000                             : en:Chapter 04
  93. 00:42:04.000                             : en:Chapter 05
  94. 00:54:45.792                             : en:Chapter 06
  95. 01:09:22.833                             : en:Chapter 07
  96. 01:29:24.875                             : en:Chapter 08
复制代码




                                       
                                       

                                       
                                       
                                       




回复

使用道具 举报

懒得打字嘛,点击右侧快捷回复 【右侧内容,后台自定义】
您需要登录后才可以回帖 登录 | 立即加入

本版积分规则

Archiver|小黑屋| 蓝光电影网 |网站地图

Copyright © 2021 Comsenz Inc. Powered by 蓝光电影网

蓝光电影网

本站内容由用户自主分享和转载自互联网,转载目的在于传递更多信息,并不代表本网赞同其观点和对其真实性负责。

如有侵权、违反国家法律政策行为,请联系我们,我们会第一时间及时清除和处理!

举报反馈邮箱:[email protected]

快速回复 返回顶部 返回列表