找回密码

蓝光电影网

查看: 61|回复: 0

[动作] 正义的子弹 Bullets.of.Justice.2019.1080p.BluRay.x264-JustWatch 10.03GB

[复制链接]
蓝光币
511
发表于 2021-6-9 17:20:40 | 显示全部楼层 |阅读模式


◎译  名 正义的子弹
◎片  名 Bullets of Justice
◎年  代 2019
◎产  地 哈萨克斯坦,保加利亚
◎类  别 行动 / 科幻 / 可骇
◎语  言 英语
◎上映日期 2019-08-23(英国) / 2020-10-15(美国收集)
◎豆瓣评分 4.6/10 from 1708 users
◎豆瓣链接 https://movie.douban.com/subject/26966754/
◎片  长 79分钟
◎导  演 瓦列·米利夫 Valeri Milev
◎编  剧 瓦列·米利夫 Valeri Milev
◎主  演 丹尼·特雷霍 Danny Trejo
       雅娜·梅里诺娃 Yana Marinova
◎标  签 正义的子弹 | 可骇 | 很想看 | 惊悚 | 超刺激 | 科幻 | 魔幻 | 66
◎简  介


  在第三次天下大战时代,美国政府倡议了一个奥秘的项目代号为“陆军培根”,以缔造超级兵士近交人与猪。25年后,一种叫做“枪口”已经占据食品链的顶端,吃和人类饲养动物一样。罗布正义是一个前赏金猎野生作的最初一行人类抵抗-一组幸存者潜藏在核掩体深处地下。他的使命是找出枪口下台并消灭他们。
  1. Video
  2. ID                                       : 1
  3. Format                                   : AVC
  4. Format/Info                              : Advanced Video Codec
  5. Format profile                           : [email protected]
  6. Format settings                          : CABAC / 5 Ref Frames
  7. Format settings, CABAC                   : Yes
  8. Format settings, Reference frames        : 5 frames
  9. Codec ID                                 : V_MPEG4/ISO/AVC
  10. Duration                                 : 1 h 19 min
  11. Bit rate                                 : 14.4 Mb/s
  12. Width                                    : 1 920 pixels
  13. Height                                   : 808 pixels
  14. Display aspect ratio                     : 2.40:1
  15. Frame rate mode                          : Constant
  16. Frame rate                               : 24.000 FPS
  17. Color space                              : YUV
  18. Chroma subsampling                       : 4:2:0
  19. Bit depth                                : 8 bits
  20. Scan type                                : Progressive
  21. Bits/(Pixel*Frame)                       : 0.387
  22. Stream size                              : 8.02 GiB (80%)
  23. Writing library                          : x264 core 163 r3059 b684ebe
  24. Encoding settings                        : cabac=1 / ref=5 / deblock=1:-3:-3 / analyse=0x3:0x133 / me=umh / subme=9 / psy=1 / psy_rd=1.00:0.00 / mixed_ref=1 / me_range=16 / chroma_me=1 / trellis=2 / 8x8dct=1 / cqm=0 / deadzone=21,11 / fast_pskip=0 / chroma_qp_offset=-2 / threads=24 / lookahead_threads=2 / sliced_threads=0 / nr=0 / decimate=1 / interlaced=0 / bluray_compat=0 / constrained_intra=0 / bframes=3 / b_pyramid=2 / b_adapt=2 / b_bias=0 / direct=3 / weightb=1 / open_gop=0 / weightp=2 / keyint=250 / keyint_min=24 / scenecut=40 / intra_refresh=0 / rc_lookahead=60 / rc=crf / mbtree=1 / crf=17.9 / qcomp=0.60 / qpmin=0 / qpmax=69 / qpstep=4 / ip_ratio=1.40 / aq=1:1.00
  25. Language                                 : English
  26. Default                                  : Yes
  27. Forced                                   : No

  28. Audio
  29. ID                                       : 2
  30. Format                                   : DTS XLL
  31. Format/Info                              : Digital Theater Systems
  32. Commercial name                          : DTS-HD Master Audio
  33. Codec ID                                 : A_DTS
  34. Duration                                 : 1 h 19 min
  35. Bit rate mode                            : Variable
  36. Bit rate                                 : 3 597 kb/s
  37. Channel(s)                               : 6 channels
  38. Channel layout                           : C L R Ls Rs LFE
  39. Sampling rate                            : 48.0 kHz
  40. Frame rate                               : 93.750 FPS (512 SPF)
  41. Bit depth                                : 24 bits
  42. Compression mode                         : Lossless
  43. Stream size                              : 2.00 GiB (20%)
  44. Language                                 : English
  45. Default                                  : Yes
  46. Forced                                   : No

  47. Text
  48. ID                                       : 3
  49. Format                                   : PGS
  50. Muxing mode                              : zlib
  51. Codec ID                                 : S_HDMV/PGS
  52. Codec ID/Info                            : Picture based subtitle format used on BDs/HD-DVDs
  53. Duration                                 : 1 h 16 min
  54. Bit rate                                 : 14.5 kb/s
  55. Count of elements                        : 852
  56. Stream size                              : 7.93 MiB (0%)
  57. Language                                 : German
  58. Default                                  : No
  59. Forced                                   : No

  60. Menu
  61. 00:00:00.000                             : :Chapter 01
  62. 00:06:14.917                             : :Chapter 02
  63. 00:20:13.083                             : :Chapter 03
  64. 00:31:08.250                             : :Chapter 04
  65. 00:42:14.875                             : :Chapter 05
  66. 00:50:12.167                             : :Chapter 06
  67. 00:58:02.250                             : :Chapter 07
  68. 01:10:32.042                             : :Chapter 08
  69. 01:18:15.042                             : :Chapter 09
  70. 01:19:25.833                             : :Chapter 10
复制代码





                                       
                                       

                                       
                                       
                                       




回复

使用道具 举报

懒得打字嘛,点击右侧快捷回复 【右侧内容,后台自定义】
您需要登录后才可以回帖 登录 | 立即加入

本版积分规则

Archiver|小黑屋| 蓝光电影网 |网站地图

Copyright © 2021 Comsenz Inc. Powered by 蓝光电影网

蓝光电影网

本站内容由用户自主分享和转载自互联网,转载目的在于传递更多信息,并不代表本网赞同其观点和对其真实性负责。

如有侵权、违反国家法律政策行为,请联系我们,我们会第一时间及时清除和处理!

举报反馈邮箱:[email protected]

快速回复 返回顶部 返回列表