找回密码

蓝光电影网

查看: 4|回复: 0

[爱情] 风尘奇侠/铁汉娇娃 The.Wonderful.Country.1959.1080p.BluRay.x264-GUACAMOLE 10.28GB

[复制链接]
蓝光币
382
发表于 2020-10-25 18:01:34 | 显示全部楼层 |阅读模式


◎译  名 风尘奇侠/铁汉娇娃
◎片  名 The Wonderful Country
◎年  代 1959
◎产  地 美国
◎类  别 恋爱 / 西部
◎语  言 英语
◎上映日期 1960-03-11
◎IMDb评分  6.2/10 from 1471 users
◎IMDb链接  https://www.imdb.com/title/tt0053453/
◎豆瓣评分 /10 from 0 users
◎豆瓣链接 https://movie.douban.com/subject/1301980/
◎片  长 98 分钟(Turner library print)
◎导  演 罗伯特·帕里什 Robert Parrish
◎编  剧 罗伯特·阿特里 Robert Ardrey / 沃尔特·伯恩斯坦 Walter Bernstein / 汤姆·利 Tom Lea
◎主  演 罗伯特·米彻姆 Robert Mitchum
       朱莉·伦敦 Julie London
       加里·梅里尔 Gary Merrill
       Chester Hayes
       维多利亚?霍恩 Victoria Horne
       迈克·凯林 Mike Kellin
       查尔斯·麦格劳 Charles McGraw
       Leroy 'Satchel' Paige
       Jay Novello
       查克·罗伯森 Chuck Roberson
       Joe Haworth
       克劳迪奥·布鲁克 Claudio Brook
       约翰·班纳 John Banner
       埃尔南多·纳梅 Hernando Name
       汤姆·利 Tom Lea
       Alberto Mariscal
       阿尔伯特·德科 Albert Dekker
       安东尼·卡卢索 Anthony Caruso
       杰克·奥克 Jack Oakie
       比德洛·阿门德里兹 Pedro Armendáriz
       维克托·曼努埃尔·门多扎 Víctor Manuel Mendoza
◎标  签 西部片 | 西部 | 美国 | 罗伯特·米彻姆 | RobertMitchum | 7.4 | 1960s | 1959
◎简  介


  暂无相关剧情先容
  1. Video
  2. ID                                       : 1
  3. Format                                   : AVC
  4. Format/Info                              : Advanced Video Codec
  5. Format profile                           : [email protected]
  6. Format settings                          : CABAC / 4 Ref Frames
  7. Format settings, CABAC                   : Yes
  8. Format settings, Reference frames        : 4 frames
  9. Codec ID                                 : V_MPEG4/ISO/AVC
  10. Duration                                 : 1 h 37 min
  11. Bit rate                                 : 14.0 Mb/s
  12. Width                                    : 1 792 pixels
  13. Height                                   : 1 080 pixels
  14. Display aspect ratio                     : 5:3
  15. Frame rate mode                          : Constant
  16. Frame rate                               : 23.976 (24000/1001/189150) FPS
  17. Color space                              : YUV
  18. Chroma subsampling                       : 4:2:0
  19. Bit depth                                : 8 bits
  20. Scan type                                : Progressive
  21. Bits/(Pixel*Frame)                       : 0.301
  22. Stream size                              : 9.57 GiB (93%)
  23. Writing library                          : x264 core 161 r3018 db0d417
  24. Encoding settings                        : cabac=1 / ref=4 / deblock=1:-3:-3 / analyse=0x3:0x133 / me=umh / subme=9 / psy=1 / psy_rd=1.00:0.00 / mixed_ref=1 / me_range=16 / chroma_me=1 / trellis=2 / 8x8dct=1 / cqm=0 / deadzone=21,11 / fast_pskip=0 / chroma_qp_offset=-2 / threads=24 / lookahead_threads=2 / sliced_threads=0 / nr=0 / decimate=1 / interlaced=0 / bluray_compat=0 / constrained_intra=0 / bframes=3 / b_pyramid=2 / b_adapt=2 / b_bias=0 / direct=3 / weightb=1 / open_gop=0 / weightp=2 / keyint=250 / keyint_min=23 / scenecut=40 / intra_refresh=0 / rc_lookahead=60 / rc=crf / mbtree=1 / crf=21.5 / qcomp=0.60 / qpmin=0 / qpmax=69 / qpstep=4 / ip_ratio=1.40 / aq=3:0.60
  25. Default                                  : Yes
  26. Forced                                   : No
  27. Color range                              : Limited
  28. Color primaries                          : BT.709
  29. Transfer characteristics                 : BT.709
  30. Matrix coefficients                      : BT.709

  31. Audio
  32. ID                                       : 2
  33. Format                                   : FLAC
  34. Format/Info                              : Free Lossless Audio Codec
  35. Codec ID                                 : A_FLAC
  36. Duration                                 : 1 h 37 min
  37. Bit rate mode                            : Variable
  38. Bit rate                                 : 1 019 kb/s
  39. Channel(s)                               : 2 channels
  40. Channel layout                           : L R
  41. Sampling rate                            : 48.0 kHz
  42. Frame rate                               : 11.719 FPS (4096 SPF)
  43. Bit depth                                : 24 bits
  44. Compression mode                         : Lossless
  45. Stream size                              : 714 MiB (7%)
  46. Writing library                          : libFLAC 1.2.1 (UTC 2007-09-17)
  47. Language                                 : English
  48. Default                                  : Yes
  49. Forced                                   : No

  50. Text
  51. ID                                       : 3
  52. Format                                   : PGS
  53. Muxing mode                              : zlib
  54. Codec ID                                 : S_HDMV/PGS
  55. Codec ID/Info                            : Picture based subtitle format used on BDs/HD-DVDs
  56. Duration                                 : 1 h 37 min
  57. Bit rate                                 : 31.7 kb/s
  58. Count of elements                        : 1816
  59. Stream size                              : 22.1 MiB (0%)
  60. Title                                    : SDH
  61. Language                                 : German
  62. Default                                  : No
  63. Forced                                   : No

  64. Menu
  65. 00:00:00.000                             : en:00:00:00.000
  66. 00:10:01.601                             : en:00:10:01.601
  67. 00:18:07.086                             : en:00:18:07.086
  68. 00:26:36.595                             : en:00:26:36.595
  69. 00:33:50.028                             : en:00:33:50.028
  70. 00:43:02.580                             : en:00:43:02.580
  71. 00:55:23.320                             : en:00:55:23.320
  72. 01:00:48.645                             : en:01:00:48.645
  73. 01:07:59.075                             : en:01:07:59.075
  74. 01:14:47.483                             : en:01:14:47.483
  75. 01:23:34.009                             : en:01:23:34.009
  76. 01:29:24.359                             : en:01:29:24.359
复制代码




                                       
                                       

                                       
                                       
                                       




回复

使用道具 举报

懒得打字嘛,点击右侧快捷回复 【右侧内容,后台自定义】
您需要登录后才可以回帖 登录 | 立即加入

本版积分规则

Archiver|小黑屋| 蓝光电影网 |网站地图

Copyright © 2021 Comsenz Inc. Powered by 蓝光电影网

蓝光电影网

本站内容由用户自主分享和转载自互联网,转载目的在于传递更多信息,并不代表本网赞同其观点和对其真实性负责。

如有侵权、违反国家法律政策行为,请联系我们,我们会第一时间及时清除和处理!

举报反馈邮箱:[email protected]

快速回复 返回顶部 返回列表