找回密码

蓝光电影网

查看: 29|回复: 1

[动作] 天使陷落/奥林匹斯的陷落3 Angel.Has.Fallen.2019.720p.BluRay.x264-AAA 4.36GB

[复制链接]
蓝光币
382
发表于 2019-11-16 23:13:02 | 显示全部楼层 |阅读模式


◎译  名 天使沦陷 / 奥林匹斯的沦陷3 / 白宫沦亡3﹕天使沦亡(港) / 空军一号沦陷
◎片  名 Angel Has Fallen
◎年  代 2019
◎产  地 美国
◎类  别 行动 / 犯罪
◎语  言 英语
◎上映日期 2019-08-23(美国)
◎IMDb评分  6.7/10 from 18202 users
◎IMDb链接  https://www.imdb.com/title/tt6189022
◎豆瓣评分 6.7/10 from 984 users
◎豆瓣链接 https://movie.douban.com/subject/26900949/
◎片  长 121分钟
◎导  演 里克·罗曼·沃夫 Ric Roman Waugh
◎编  剧 凯特琳·贝内迪克特 Katrin Benedikt / 罗伯特·马克·卡门 Robert Mark Kamen / 克赖顿·罗森博格 Creighton Rothenberger
◎主  演 杰拉德·巴特勒 Gerard Butler
       摩根·弗里曼 Morgan Freeman
       派珀·佩拉博 Piper Perabo
       兰斯·莱迪克 Lance Reddick
       贾达·萍克·史姑娘 Jada Pinkett Smith
       蒂姆·布雷克·尼尔森 Tim Blake Nelson
       尼克·诺特 Nick Nolte
       克里斯·勃朗宁 Chris Browning
       丹尼·赫斯顿 Danny Huston
       迈克尔·兰德斯 Michael Landes
       约瑟夫·米尔森 Joseph Millson
       索菲娅·德尔·皮佐 Sophia Del Pizzo
       马克·阿诺德 Mark Arnold
       萨皮尔·阿苏拉 Sapir Azulay
       费雷德里克·施密特 Frederick Schmidt
       马克·史姑娘 Mark Rhino Smith
       布伦丹·凯利 Brendan Kelly
       凯瑞·莎勒 Kerry Shale
       奥利·普费弗 Ori Pfeffer
       布莱恩·拉金 Bryan Larkin
       科林·斯廷顿 Colin Stinton
       阿塔纳斯·斯雷布雷夫 Atanas Srebrev
       贾格·帕特尔 Jag Patel
       乔蕾·科斯 Joelle Koissi
       黛博拉·洛克 Deborah Rock
       丹尼尔·厄根 Daniel Eghan
       伯纳多·桑托斯 Bernardo Santos
       内森·库珀 Nathan Cooper
       泰·赫尔利 Ty Hurley
       保罗·布莱克维尔 Paul Blackwell
       米迦勒·博迪 Michael Bodie
       劳拉·马塔沙 Laura Matassa
       凯文·马塔迪恩 Kevin Matadeen
       格雷格·奥维斯 Greg Orvis
       马丁·贝尔曼 Martin Behrman
       乔治娅·古德曼 Georgia Goodman

◎标  签 行动 | 美国 | 沦陷 | 2019 | 反恐 | 犯罪 | 战争 | 奸细
◎简  介  
  美国总统(摩根·弗里曼饰)在遭受无人机可骇攻击后身受重伤堕入昏迷,随行职员在屡次爆炸中三军淹没,唯一的幸存者——总统多年贴身保镳迈克·班宁(杰拉德·巴特勒饰)却成最大怀疑犯,被FBI控诉诡计暗杀总统。班宁必须给自己洗刷委屈,同时阻止实在的刺杀总统计划,在多方势力围追切断下,穷途末路的他只能追求一位奥秘人的庇护……已经的豪杰保镳现在变成通缉犯,班宁将若何离开险境、庇护总统,破解背后的诡计?
  1. Video
  2. ID                                       : 1
  3. Format                                   : AVC
  4. Format/Info                              : Advanced Video Codec
  5. Format profile                           : [email protected]
  6. Format settings                          : CABAC / 5 Ref Frames
  7. Format settings, CABAC                   : Yes
  8. Format settings, Reference frames        : 5 frames
  9. Codec ID                                 : V_MPEG4/ISO/AVC
  10. Duration                                 : 2 h 1 min
  11. Bit rate                                 : 4 521 kb/s
  12. Width                                    : 1 280 pixels
  13. Height                                   : 536 pixels
  14. Display aspect ratio                     : 2.40:1
  15. Frame rate mode                          : Constant
  16. Frame rate                               : 23.976 (24000/1001) FPS
  17. Color space                              : YUV
  18. Chroma subsampling                       : 4:2:0
  19. Bit depth                                : 8 bits
  20. Scan type                                : Progressive
  21. Bits/(Pixel*Frame)                       : 0.275
  22. Stream size                              : 3.82 GiB (88%)
  23. Writing library                          : x264 core 157 r2969 d4099dd
  24. Encoding settings                        : cabac=1 / ref=5 / deblock=1:1:1 / analyse=0x3:0x133 / me=umh / subme=8 / psy=1 / psy_rd=1.00:0.00 / mixed_ref=1 / me_range=16 / chroma_me=1 / trellis=1 / 8x8dct=1 / cqm=0 / deadzone=21,11 / fast_pskip=0 / chroma_qp_offset=-2 / threads=17 / lookahead_threads=2 / sliced_threads=0 / nr=0 / decimate=1 / interlaced=0 / bluray_compat=0 / constrained_intra=0 / bframes=3 / b_pyramid=2 / b_adapt=2 / b_bias=0 / direct=3 / weightb=1 / open_gop=0 / weightp=2 / keyint=250 / keyint_min=23 / scenecut=40 / intra_refresh=0 / rc_lookahead=50 / rc=2pass / mbtree=1 / bitrate=4521 / ratetol=1.0 / qcomp=0.60 / qpmin=0 / qpmax=69 / qpstep=4 / cplxblur=20.0 / qblur=0.5 / ip_ratio=1.40 / aq=1:1.00
  25. Language                                 : English
  26. Default                                  : Yes
  27. Forced                                   : No

  28. Audio
  29. ID                                       : 2
  30. Format                                   : AC-3
  31. Format/Info                              : Audio Coding 3
  32. Commercial name                          : Dolby Digital
  33. Codec ID                                 : A_AC3
  34. Duration                                 : 2 h 1 min
  35. Bit rate mode                            : Constant
  36. Bit rate                                 : 640 kb/s
  37. Channel(s)                               : 6 channels
  38. Channel layout                           : L R C LFE Ls Rs
  39. Sampling rate                            : 48.0 kHz
  40. Frame rate                               : 31.250 FPS (1536 SPF)
  41. Bit depth                                : 16 bits
  42. Compression mode                         : Lossy
  43. Stream size                              : 554 MiB (12%)
  44. Language                                 : English
  45. Service kind                             : Complete Main
  46. Default                                  : Yes
  47. Forced                                   : No

  48. Menu
  49. 00:00:00.000                             : en:Chapter 01
  50. 00:06:48.950                             : en:Chapter 02
  51. 00:15:08.157                             : en:Chapter 03
  52. 00:23:13.809                             : en:Chapter 04
  53. 00:28:35.714                             : en:Chapter 05
  54. 00:39:39.627                             : en:Chapter 06
  55. 00:45:33.564                             : en:Chapter 07
  56. 00:50:56.053                             : en:Chapter 08
  57. 00:59:23.393                             : en:Chapter 09
  58. 01:06:50.882                             : en:Chapter 10
  59. 01:16:25.873                             : en:Chapter 11
  60. 01:24:11.046                             : en:Chapter 12
  61. 01:30:14.409                             : en:Chapter 13
  62. 01:37:42.064                             : en:Chapter 14
  63. 01:44:54.538                             : en:Chapter 15
  64. 01:51:08.120                             : en:Chapter 16
复制代码




                                       
                                       

                                       
                                       
                                       




回复

使用道具 举报

蓝光币
1
发表于 2021-8-27 10:09:28 来自手机 | 显示全部楼层
好电影下载看看
回复 支持 反对

使用道具 举报

懒得打字嘛,点击右侧快捷回复 【右侧内容,后台自定义】
您需要登录后才可以回帖 登录 | 立即加入

本版积分规则

Archiver|小黑屋| 蓝光电影网 |网站地图

Copyright © 2021 Comsenz Inc. Powered by 蓝光电影网

蓝光电影网

本站内容由用户自主分享和转载自互联网,转载目的在于传递更多信息,并不代表本网赞同其观点和对其真实性负责。

如有侵权、违反国家法律政策行为,请联系我们,我们会第一时间及时清除和处理!

举报反馈邮箱:[email protected]

快速回复 返回顶部 返回列表