找回密码

蓝光电影网

查看: 9|回复: 0

[惊悚] 土狼湖 Coyote.Lake.2019.720p.BluRay.x264-JustWatch 2.06GB

[复制链接]
蓝光币
382
发表于 2020-9-20 10:01:40 | 显示全部楼层 |阅读模式


◎译  名 土狼湖
◎片  名 Coyote Lake
◎年  代 2019
◎产  地 美国
◎类  别 惊悚
◎语  言 英语
◎上映日期 2019-08-02(美国)
◎IMDb评分  5.2/10 from 631 users
◎IMDb链接  https://www.imdb.com/title/tt5117372/
◎豆瓣评分 5.6/10 from 188 users
◎豆瓣链接 https://movie.douban.com/subject/34453724/
◎片  长 93分钟
◎主  演 查理·韦伯 Charlie Weber
       艾德里安娜·巴拉扎 Adriana Barraza
       尼尔·桑迪兰兹 Neil Sandilands
       曼尼·佩雷斯 Manny Perez
       卡米拉·门德斯 Camila Mendes
◎标  签 犯罪 | 惊悚 | 美国 | 剧情 | 2019 | 人性 | 美国电影 | 卡米拉·门德斯
◎简  介


  艾斯特和她独裁的母亲在美国与墨西哥边境经营着一家小小的留宿旅店。一天夜里,两个不速之客的到来,威胁到一切人的平安。可是这两个女人却藏着更加惊人的奥秘,她俩操纵着幕后的一切
  1. Video
  2. ID                                       : 1
  3. Format                                   : AVC
  4. Format/Info                              : Advanced Video Codec
  5. Format profile                           : [email protected]
  6. Format settings                          : CABAC / 8 Ref Frames
  7. Format settings, CABAC                   : Yes
  8. Format settings, Reference frames        : 8 frames
  9. Codec ID                                 : V_MPEG4/ISO/AVC
  10. Duration                                 : 1 h 33 min
  11. Bit rate                                 : 2 500 kb/s
  12. Width                                    : 1 280 pixels
  13. Height                                   : 538 pixels
  14. Display aspect ratio                     : 2.40:1
  15. Frame rate mode                          : Constant
  16. Frame rate                               : 24.000 FPS
  17. Color space                              : YUV
  18. Chroma subsampling                       : 4:2:0
  19. Bit depth                                : 8 bits
  20. Scan type                                : Progressive
  21. Bits/(Pixel*Frame)                       : 0.151
  22. Stream size                              : 1.63 GiB (79%)
  23. Writing library                          : x264 core 161 r3018 db0d417
  24. Encoding settings                        : cabac=1 / ref=8 / deblock=1:-3:-3 / analyse=0x3:0x133 / me=umh / subme=9 / psy=1 / psy_rd=1.00:0.00 / mixed_ref=1 / me_range=16 / chroma_me=1 / trellis=2 / 8x8dct=1 / cqm=0 / deadzone=21,11 / fast_pskip=0 / chroma_qp_offset=-2 / threads=17 / lookahead_threads=1 / sliced_threads=0 / nr=0 / decimate=1 / interlaced=0 / bluray_compat=0 / constrained_intra=0 / bframes=3 / b_pyramid=2 / b_adapt=2 / b_bias=0 / direct=3 / weightb=1 / open_gop=0 / weightp=2 / keyint=250 / keyint_min=24 / scenecut=40 / intra_refresh=0 / rc_lookahead=60 / rc=crf / mbtree=1 / crf=17.0 / qcomp=0.60 / qpmin=0 / qpmax=69 / qpstep=4 / ip_ratio=1.40 / aq=1:1.00
  25. Language                                 : English
  26. Default                                  : Yes
  27. Forced                                   : No

  28. Audio
  29. ID                                       : 2
  30. Format                                   : AC-3
  31. Format/Info                              : Audio Coding 3
  32. Commercial name                          : Dolby Digital
  33. Codec ID                                 : A_AC3
  34. Duration                                 : 1 h 33 min
  35. Bit rate mode                            : Constant
  36. Bit rate                                 : 640 kb/s
  37. Channel(s)                               : 6 channels
  38. Channel layout                           : L R C LFE Ls Rs
  39. Sampling rate                            : 48.0 kHz
  40. Frame rate                               : 31.250 FPS (1536 SPF)
  41. Compression mode                         : Lossy
  42. Stream size                              : 428 MiB (20%)
  43. Language                                 : English
  44. Service kind                             : Complete Main
  45. Default                                  : Yes
  46. Forced                                   : No

  47. Text #1
  48. ID                                       : 3
  49. Format                                   : UTF-8
  50. Codec ID                                 : S_TEXT/UTF8
  51. Codec ID/Info                            : UTF-8 Plain Text
  52. Duration                                 : 1 h 20 min
  53. Bit rate                                 : 10 b/s
  54. Count of elements                        : 209
  55. Stream size                              : 5.92 KiB (0%)
  56. Language                                 : English
  57. Default                                  : Yes
  58. Forced                                   : No

  59. Text #2
  60. ID                                       : 4
  61. Format                                   : PGS
  62. Muxing mode                              : zlib
  63. Codec ID                                 : S_HDMV/PGS
  64. Codec ID/Info                            : Picture based subtitle format used on BDs/HD-DVDs
  65. Duration                                 : 1 h 20 min
  66. Bit rate                                 : 6 152 b/s
  67. Count of elements                        : 418
  68. Stream size                              : 3.53 MiB (0%)
  69. Language                                 : English
  70. Default                                  : No
  71. Forced                                   : No

  72. Text #3
  73. ID                                       : 5
  74. Format                                   : PGS
  75. Muxing mode                              : zlib
  76. Codec ID                                 : S_HDMV/PGS
  77. Codec ID/Info                            : Picture based subtitle format used on BDs/HD-DVDs
  78. Duration                                 : 1 h 21 min
  79. Bit rate                                 : 28.2 kb/s
  80. Count of elements                        : 1746
  81. Stream size                              : 16.5 MiB (1%)
  82. Language                                 : German
  83. Default                                  : No
  84. Forced                                   : No

  85. Menu
  86. 00:00:00.000                             : :Kapitel 01
  87. 00:04:53.875                             : :Kapitel 02
  88. 00:12:11.167                             : :Kapitel 03
  89. 00:17:18.375                             : :Kapitel 04
  90. 00:23:15.792                             : :Kapitel 05
  91. 00:29:31.083                             : :Kapitel 06
  92. 00:35:03.375                             : :Kapitel 07
  93. 00:38:52.625                             : :Kapitel 08
  94. 00:42:40.333                             : :Kapitel 09
  95. 00:47:12.375                             : :Kapitel 10
  96. 00:51:28.375                             : :Kapitel 11
  97. 01:00:21.500                             : :Kapitel 12
  98. 01:05:51.500                             : :Kapitel 13
  99. 01:12:44.750                             : :Kapitel 14
  100. 01:19:02.500                             : :Kapitel 15
  101. 01:29:27.000                             : :Kapitel 16
复制代码




                                       
                                       

                                       
                                       
                                       




回复

使用道具 举报

懒得打字嘛,点击右侧快捷回复 【右侧内容,后台自定义】
您需要登录后才可以回帖 登录 | 立即加入

本版积分规则

Archiver|小黑屋| 蓝光电影网 |网站地图

Copyright © 2021 Comsenz Inc. Powered by 蓝光电影网

蓝光电影网

本站内容由用户自主分享和转载自互联网,转载目的在于传递更多信息,并不代表本网赞同其观点和对其真实性负责。

如有侵权、违反国家法律政策行为,请联系我们,我们会第一时间及时清除和处理!

举报反馈邮箱:[email protected]

快速回复 返回顶部 返回列表