找回密码

蓝光电影网

查看: 17|回复: 0

[科幻] 死亡之刺/杀人水母 Sting.of.Death.1966.1080p.BluRay.x264-NOGRP 7.96GB

[复制链接]
蓝光币
426
发表于 2021-1-13 09:48:13 | 显示全部楼层 |阅读模式
[img][/img]

◎译  名 灭亡之刺/杀人水母
◎片  名 Sting of Death
◎年  代 1965
◎产  地 美国
◎类  别 科幻 / 可骇
◎语  言 英语
◎上映日期 1965
◎IMDb评分  4.5/10 from 382 users
◎IMDb链接  https://www.imdb.com/title/tt0059756/
◎豆瓣评分 /10 from 0 users
◎豆瓣链接 https://movie.douban.com/subject/5057906/
◎片  长 80 分钟
◎导  演 威廉·格雷菲 William Grefe
◎编  剧 William Kerwin
◎主  演 Joe Morrison
       Jack Nagle
       迪安娜·隆德 Deanna Lund
       道格·霍巴特 Doug Hobart
◎标  签 美国电影 | 惊悚 | 可骇 | 行动
◎简  介


  暂无相关剧情先容
  1. Video
  2. ID                                       : 1
  3. Format                                   : AVC
  4. Format/Info                              : Advanced Video Codec
  5. Format profile                           : [email protected]
  6. Format settings                          : CABAC / 4 Ref Frames
  7. Format settings, CABAC                   : Yes
  8. Format settings, Reference frames        : 4 frames
  9. Codec ID                                 : V_MPEG4/ISO/AVC
  10. Duration                                 : 1 h 20 min
  11. Bit rate                                 : 13.9 Mb/s
  12. Width                                    : 1 920 pixels
  13. Height                                   : 1 080 pixels
  14. Display aspect ratio                     : 16:9
  15. Frame rate mode                          : Constant
  16. Frame rate                               : 23.976 (24000/1001/189150) FPS
  17. Color space                              : YUV
  18. Chroma subsampling                       : 4:2:0
  19. Bit depth                                : 8 bits
  20. Scan type                                : Progressive
  21. Bits/(Pixel*Frame)                       : 0.280
  22. Stream size                              : 7.78 GiB (98%)
  23. Writing library                          : x264 core 157 r2935 545de2f
  24. Encoding settings                        : cabac=1 / ref=4 / deblock=1:-3:-3 / analyse=0x3:0x133 / me=umh / subme=10 / psy=1 / psy_rd=1.00:0.00 / mixed_ref=1 / me_range=32 / chroma_me=1 / trellis=2 / 8x8dct=1 / cqm=0 / deadzone=21,11 / fast_pskip=0 / chroma_qp_offset=-2 / threads=12 / lookahead_threads=3 / sliced_threads=0 / nr=0 / decimate=0 / interlaced=0 / bluray_compat=0 / constrained_intra=0 / bframes=16 / b_pyramid=2 / b_adapt=2 / b_bias=0 / direct=3 / weightb=1 / open_gop=0 / weightp=2 / keyint=240 / keyint_min=24 / scenecut=40 / intra_refresh=0 / rc_lookahead=60 / rc=crf / mbtree=0 / crf=23.0 / qcomp=0.60 / qpmin=0 / qpmax=69 / qpstep=4 / vbv_maxrate=62500 / vbv_bufsize=78125 / crf_max=0.0 / nal_hrd=none / filler=0 / ip_ratio=1.40 / pb_ratio=1.30 / aq=2:1.00
  25. Default                                  : Yes
  26. Forced                                   : No
  27. Color range                              : Limited
  28. Color primaries                          : BT.709
  29. Transfer characteristics                 : BT.709
  30. Matrix coefficients                      : BT.709
  31. Audio #1
  32. ID                                       : 2
  33. Format                                   : AAC LC
  34. Format/Info                              : Advanced Audio Codec Low Complexity
  35. Codec ID                                 : A_AAC-2
  36. Duration                                 : 1 h 20 min
  37. Bit rate                                 : 132 kb/s
  38. Channel(s)                               : 1 channel
  39. Channel layout                           : C
  40. Sampling rate                            : 48.0 kHz
  41. Frame rate                               : 46.875 FPS (1024 SPF)
  42. Compression mode                         : Lossy
  43. Stream size                              : 76.9 MiB (1%)
  44. Language                                 : English
  45. Default                                  : Yes
  46. Forced                                   : No
  47. Audio #2
  48. ID                                       : 3
  49. Format                                   : AC-3
  50. Format/Info                              : Audio Coding 3
  51. Commercial name                          : Dolby Digital
  52. Codec ID                                 : A_AC3
  53. Duration                                 : 1 h 20 min
  54. Bit rate mode                            : Constant
  55. Bit rate                                 : 192 kb/s
  56. Channel(s)                               : 2 channels
  57. Channel layout                           : L R
  58. Sampling rate                            : 48.0 kHz
  59. Frame rate                               : 31.250 FPS (1536 SPF)
  60. Compression mode                         : Lossy
  61. Stream size                              : 110 MiB (1%)
  62. Title                                    : Commentary with writer/director William Grefé and filmmaker/historian Frank Henenlotter
  63. Language                                 : English
  64. Service kind                             : Complete Main
  65. Default                                  : No
  66. Forced                                   : No
  67. Text #1
  68. ID                                       : 4
  69. Format                                   : UTF-8
  70. Codec ID                                 : S_TEXT/UTF8
  71. Codec ID/Info                            : UTF-8 Plain Text
  72. Duration                                 : 1 h 18 min
  73. Bit rate                                 : 45 b/s
  74. Count of elements                        : 637
  75. Stream size                              : 26.3 KiB (0%)
  76. Language                                 : English
  77. Default                                  : No
  78. Forced                                   : No
  79. Text #2
  80. ID                                       : 5
  81. Format                                   : UTF-8
  82. Codec ID                                 : S_TEXT/UTF8
  83. Codec ID/Info                            : UTF-8 Plain Text
  84. Duration                                 : 1 h 19 min
  85. Bit rate                                 : 47 b/s
  86. Count of elements                        : 685
  87. Stream size                              : 27.3 KiB (0%)
  88. Title                                    : SDH
  89. Language                                 : English
  90. Default                                  : No
  91. Forced                                   : No
  92. Menu
  93. 00:00:00.000                             : en:Chapter 01
  94. 00:09:38.161                             : en:Chapter 02
  95. 00:17:57.743                             : en:Chapter 03
  96. 00:23:38.792                             : en:Chapter 04
  97. 00:31:34.559                             : en:Chapter 05
  98. 00:40:36.225                             : en:Chapter 06
  99. 00:48:39.750                             : en:Chapter 07
  100. 00:57:03.629                             : en:Chapter 08
  101. 01:02:38.672                             : en:Chapter 09
  102. 01:11:09.474                             : en:Chapter 10
复制代码



                                       
                                       

                                       
                                       
                                       




回复

使用道具 举报

懒得打字嘛,点击右侧快捷回复 【右侧内容,后台自定义】
您需要登录后才可以回帖 登录 | 立即加入

本版积分规则

Archiver|小黑屋| 蓝光电影网 |网站地图

Copyright © 2021 Comsenz Inc. Powered by 蓝光电影网

蓝光电影网

本站内容由用户自主分享和转载自互联网,转载目的在于传递更多信息,并不代表本网赞同其观点和对其真实性负责。

如有侵权、违反国家法律政策行为,请联系我们,我们会第一时间及时清除和处理!

举报反馈邮箱:[email protected]

快速回复 返回顶部 返回列表