找回密码

蓝光电影网

查看: 36|回复: 0

[爱情] 千年血后/血魔 The.Hunger.1983.1080p.BluRay.X264-AMIABLE 7.94GB

[复制链接]
蓝光币
382
发表于 2020-10-20 11:27:16 | 显示全部楼层 |阅读模式


◎译  名 千年血后/血魔
◎片  名 The Hunger
◎年  代 1983
◎产  地 英国
◎类  别 恋爱 / 可骇
◎语  言 英语
◎上映日期 1983-04-29(英国)
◎IMDb评分  6.7/10 from 22760 users
◎IMDb链接  https://www.imdb.com/title/tt0085701/
◎豆瓣评分 6.8/10 from 1812 users
◎豆瓣链接 https://movie.douban.com/subject/1301518/
◎片  长 97分钟
◎导  演 托尼·斯科特 Tony Scott
◎编  剧 Michael Thomas / Whitley Strieber / 詹姆斯·科斯蒂根 James Costigan
◎主  演 凯瑟琳·德纳芙 Catherine Deneuve
       大卫·鲍伊 David Bowie
       苏珊·萨兰登 Susan Sarandon
       克利夫·德杨 Cliff De Young
       Beth Ehlers
       丹·哈达亚 Dan Hedaya
       Rufus Collins
       苏珊娜·伯蒂什 Suzanne Bertish
       詹姆斯·奥布里 James Aubrey
       安·麦格纽森 Ann Magnuson
       谢恩·里默 Shane Rimmer
       包豪斯 Bauhaus
       道格拉斯·兰伯特 Douglas Lambert
       贝茜·洛芙 Bessie Love
       约翰·潘科夫 John Pankow
       威廉·达福 Willem Dafoe
       索菲娅·沃德 Sophie Ward
       Philip Sayer
       Lise Hilboldt
       George Camiller
       Howard Blake
       简·丽芙丝 Jane Leeves
       德里克·莱昂斯 Derek Lyons
       彼得·墨菲 Peter Murphy
◎标  签 吸血鬼 | 英国 | DavidBowie | CatherineDeneuve | 1983 | 英国电影 | Vampire | SusanSarandon
◎简  介


  玛丽安(凯瑟琳·德纳芙 Catherine Deneuve 饰)和约翰(大卫·鲍伊 David Bowie 饰)已经不太记得请他们究竟在一路多长时候了,他们只晓得,每过7天,他们都需要饮下人类的血液,以此保存青春,没错,他们都是吸血鬼。约翰的忽然衰老给玛丽安带来了发急,由于在她冗长了生命里,这样的工作发生过不止一次,但是每一次,能终结这类衰老的只要灭亡。
  
  萨拉(苏珊·萨兰登 Susan Sarandon 饰)将自己的终生精神都投入到了研讨永生不老药上面,不幸的是,萨拉的研讨也没法拯救约翰,他终极死去。美丽性感的莎拉吸引了玛丽安的留意,可莎拉却并不想像玛丽安那样酿成吸血鬼。为了抵挡玛丽安,莎拉挑选了自杀,站在莎拉的尸身旁,玛丽安晓得,自己将再一次堕入到无尽的孤独和孤单当中。
  1. Video
  2. ID                                       : 1
  3. Format                                   : AVC
  4. Format/Info                              : Advanced Video Codec
  5. Format profile                           : [email protected]
  6. Format settings                          : CABAC / 5 Ref Frames
  7. Format settings, CABAC                   : Yes
  8. Format settings, Reference frames        : 5 frames
  9. Codec ID                                 : V_MPEG4/ISO/AVC
  10. Duration                                 : 1 h 36 min
  11. Bit rate                                 : 10.3 Mb/s
  12. Width                                    : 1 920 pixels
  13. Height                                   : 808 pixels
  14. Display aspect ratio                     : 2.40:1
  15. Frame rate mode                          : Constant
  16. Frame rate                               : 23.976 (24000/1001/189150) FPS
  17. Color space                              : YUV
  18. Chroma subsampling                       : 4:2:0
  19. Bit depth                                : 8 bits
  20. Scan type                                : Progressive
  21. Bits/(Pixel*Frame)                       : 0.276
  22. Stream size                              : 6.77 GiB (85%)
  23. Writing library                          : x264 core 148 r2579 73ae2d1
  24. Encoding settings                        : cabac=1 / ref=5 / deblock=1:-3:-3 / analyse=0x3:0x113 / me=umh / subme=8 / psy=1 / psy_rd=1.00:0.00 / mixed_ref=1 / me_range=16 / chroma_me=1 / trellis=1 / 8x8dct=1 / cqm=0 / deadzone=21,11 / fast_pskip=1 / chroma_qp_offset=-2 / threads=24 / lookahead_threads=4 / sliced_threads=0 / nr=0 / decimate=1 / interlaced=0 / bluray_compat=0 / constrained_intra=0 / bframes=3 / b_pyramid=2 / b_adapt=2 / b_bias=0 / direct=3 / weightb=1 / open_gop=0 / weightp=2 / keyint=240 / keyint_min=24 / scenecut=40 / intra_refresh=0 / rc_lookahead=50 / rc=2pass / mbtree=1 / bitrate=10272 / ratetol=1.0 / qcomp=0.60 / qpmin=0 / qpmax=69 / qpstep=4 / cplxblur=20.0 / qblur=0.5 / ip_ratio=1.40 / aq=1:1.00
  25. Language                                 : English
  26. Default                                  : Yes
  27. Forced                                   : No

  28. Audio
  29. ID                                       : 2
  30. Format                                   : DTS
  31. Format/Info                              : Digital Theater Systems
  32. Codec ID                                 : A_DTS
  33. Duration                                 : 1 h 36 min
  34. Bit rate mode                            : Constant
  35. Bit rate                                 : 1 509 kb/s
  36. Channel(s)                               : 2 channels
  37. Channel layout                           : L R
  38. Sampling rate                            : 48.0 kHz
  39. Frame rate                               : 93.750 FPS (512 SPF)
  40. Bit depth                                : 24 bits
  41. Compression mode                         : Lossy
  42. Stream size                              : 1.02 GiB (13%)
  43. Language                                 : English
  44. Default                                  : Yes
  45. Forced                                   : No

  46. Text #1
  47. ID                                       : 3
  48. Format                                   : UTF-8
  49. Codec ID                                 : S_TEXT/UTF8
  50. Codec ID/Info                            : UTF-8 Plain Text
  51. Language                                 : English
  52. Default                                  : No
  53. Forced                                   : No

  54. Text #2
  55. ID                                       : 4
  56. Format                                   : UTF-8
  57. Codec ID                                 : S_TEXT/UTF8
  58. Codec ID/Info                            : UTF-8 Plain Text
  59. Title                                    : SDH
  60. Language                                 : English
  61. Default                                  : No
  62. Forced                                   : No

  63. Menu
  64. 00:00:00.000                             : en:00:00:00.000
  65. 00:03:10.899                             : en:00:03:10.899
  66. 00:06:30.098                             : en:00:06:30.098
  67. 00:12:29.374                             : en:00:12:29.374
  68. 00:16:20.938                             : en:00:16:20.938
  69. 00:21:09.852                             : en:00:21:09.852
  70. 00:27:52.296                             : en:00:27:52.296
  71. 00:32:26.153                             : en:00:32:26.153
  72. 00:38:40.485                             : en:00:38:40.485
  73. 00:44:49.896                             : en:00:44:49.896
  74. 00:48:23.776                             : en:00:48:23.776
  75. 00:52:23.223                             : en:00:52:23.223
  76. 00:56:13.328                             : en:00:56:13.328
  77. 01:00:05.602                             : en:01:00:05.602
  78. 01:03:30.432                             : en:01:03:30.432
  79. 01:08:30.148                             : en:01:08:30.148
  80. 01:10:41.904                             : en:01:10:41.904
  81. 01:13:53.512                             : en:01:13:53.512
  82. 01:16:47.228                             : en:01:16:47.228
  83. 01:21:12.034                             : en:01:21:12.034
  84. 01:24:44.121                             : en:01:24:44.121
  85. 01:29:48.466                             : en:01:29:48.466
  86. 01:33:13.713                             : en:01:33:13.713
复制代码









                                       
                                       

                                       
                                       
                                       




回复

使用道具 举报

懒得打字嘛,点击右侧快捷回复 【右侧内容,后台自定义】
您需要登录后才可以回帖 登录 | 立即加入

本版积分规则

Archiver|小黑屋| 蓝光电影网 |网站地图

Copyright © 2021 Comsenz Inc. Powered by 蓝光电影网

蓝光电影网

本站内容由用户自主分享和转载自互联网,转载目的在于传递更多信息,并不代表本网赞同其观点和对其真实性负责。

如有侵权、违反国家法律政策行为,请联系我们,我们会第一时间及时清除和处理!

举报反馈邮箱:[email protected]

快速回复 返回顶部 返回列表