找回密码

蓝光电影网

查看: 20|回复: 0

[科幻] 暗夜凶光 Dark.Light.2019.1080p.BluRay.x264.DTS-FGT 8.14GB

[复制链接]
蓝光币
382
发表于 2021-1-12 17:30:56 | 显示全部楼层 |阅读模式
[img][/img]

◎译  名 暗夜凶光
◎片  名 Dark Light
◎年  代 2019
◎产  地 美国
◎类  别 科幻 / 惊悚 / 可骇
◎语  言 英语
◎上映日期 2019-12-06(美国)
◎IMDb评分  4.6/10 from 2050 users
◎IMDb链接  https://www.imdb.com/title/tt9135260/
◎豆瓣评分 4.2/10 from 232 users
◎豆瓣链接 https://movie.douban.com/subject/30453606/
◎片  长 90分钟
◎主  演 杰西卡·马德森 Jessica Madsen
       本·苏利文 Ben Sullivan
◎标  签 可骇 | 惊悚 | 美国 | 科幻 | 2019 | 美国电影 | 奇异 | 美國
◎简  介


  随着她母亲的归天和疾苦的仳离,安妮和她的女儿搬回她童年的家。开初一切似乎很好,但悲剧再次发生时,在一个雾蒙蒙的早晨,艾米丽失落了从她的寝室。安妮宣称她从黑黑暗看到了什么工具,并带走了艾米丽……一个生物。
  1. Video
  2. ID                                       : 1
  3. Format                                   : AVC
  4. Format/Info                              : Advanced Video Codec
  5. Format profile                           : [email protected]
  6. Format settings                          : CABAC / 4 Ref Frames
  7. Format settings, CABAC                   : Yes
  8. Format settings, Reference frames        : 4 frames
  9. Codec ID                                 : V_MPEG4/ISO/AVC
  10. Duration                                 : 1 h 29 min
  11. Bit rate                                 : 11.5 Mb/s
  12. Width                                    : 1 920 pixels
  13. Height                                   : 720 pixels
  14. Display aspect ratio                     : 2.667
  15. Frame rate mode                          : Constant
  16. Frame rate                               : 23.976 (24000/1001/189150) FPS
  17. Color space                              : YUV
  18. Chroma subsampling                       : 4:2:0
  19. Bit depth                                : 8 bits
  20. Scan type                                : Progressive
  21. Bits/(Pixel*Frame)                       : 0.347
  22. Stream size                              : 7.19 GiB (88%)
  23. Writing library                          : x264 core 148 r2795M aaa9aa8
  24. Encoding settings                        : cabac=1 / ref=4 / deblock=1:-2:-2 / analyse=0x3:0x113 / me=umh / subme=9 / psy=1 / psy_rd=1.00:0.15 / mixed_ref=1 / me_range=16 / chroma_me=1 / trellis=2 / 8x8dct=1 / cqm=0 / deadzone=21,11 / fast_pskip=1 / chroma_qp_offset=-3 / threads=24 / lookahead_threads=3 / sliced_threads=0 / nr=0 / decimate=1 / interlaced=0 / bluray_compat=0 / constrained_intra=0 / bframes=3 / b_pyramid=2 / b_adapt=1 / b_bias=0 / direct=3 / weightb=1 / open_gop=0 / weightp=2 / keyint=250 / keyint_min=25 / scenecut=40 / intra_refresh=0 / rc_lookahead=50 / rc=2pass / mbtree=1 / bitrate=11500 / ratetol=1.0 / qcomp=0.60 / qpmin=0 / qpmax=69 / qpstep=4 / cplxblur=20.0 / qblur=0.5 / vbv_maxrate=31250 / vbv_bufsize=31250 / nal_hrd=none / filler=0 / ip_ratio=1.40 / aq=1:1.00
  25. Language                                 : English
  26. Default                                  : Yes
  27. Forced                                   : No
  28. Audio
  29. ID                                       : 2
  30. Format                                   : DTS
  31. Format/Info                              : Digital Theater Systems
  32. Codec ID                                 : A_DTS
  33. Duration                                 : 1 h 29 min
  34. Bit rate mode                            : Constant
  35. Bit rate                                 : 1 509 kb/s
  36. Channel(s)                               : 6 channels
  37. Channel layout                           : C L R Ls Rs LFE
  38. Sampling rate                            : 48.0 kHz
  39. Frame rate                               : 93.750 FPS (512 SPF)
  40. Bit depth                                : 24 bits
  41. Compression mode                         : Lossy
  42. Stream size                              : 967 MiB (12%)
  43. Title                                    : DTS 5.1
  44. Language                                 : English
  45. Default                                  : Yes
  46. Forced                                   : No
  47. Text
  48. ID                                       : 3
  49. Format                                   : UTF-8
  50. Codec ID                                 : S_TEXT/UTF8
  51. Codec ID/Info                            : UTF-8 Plain Text
  52. Duration                                 : 1 h 24 min
  53. Bit rate                                 : 23 b/s
  54. Count of elements                        : 568
  55. Stream size                              : 14.7 KiB (0%)
  56. Title                                    : English-SRT
  57. Language                                 : English
  58. Default                                  : Yes
  59. Forced                                   : No
  60. Menu
  61. 00:00:00.000                             : en:Chapter 1
  62. 00:08:44.649                             : en:Chapter 2
  63. 00:15:59.333                             : en:Chapter 3
  64. 00:24:03.901                             : en:Chapter 4
  65. 00:32:05.382                             : en:Chapter 5
  66. 00:38:34.646                             : en:Chapter 6
  67. 00:47:43.027                             : en:Chapter 7
  68. 00:55:40.212                             : en:Chapter 8
  69. 01:03:44.988                             : en:Chapter 9
  70. 01:10:13.543                             : en:Chapter 10
  71. 01:17:23.681                             : en:Chapter 11
  72. 01:26:26.890                             : en:Chapter 12
复制代码



                                       
                                       

                                       
                                       
                                       




回复

使用道具 举报

懒得打字嘛,点击右侧快捷回复 【右侧内容,后台自定义】
您需要登录后才可以回帖 登录 | 立即加入

本版积分规则

Archiver|小黑屋| 蓝光电影网 |网站地图

Copyright © 2021 Comsenz Inc. Powered by 蓝光电影网

蓝光电影网

本站内容由用户自主分享和转载自互联网,转载目的在于传递更多信息,并不代表本网赞同其观点和对其真实性负责。

如有侵权、违反国家法律政策行为,请联系我们,我们会第一时间及时清除和处理!

举报反馈邮箱:[email protected]

快速回复 返回顶部 返回列表