找回密码

蓝光电影网

查看: 10|回复: 0

[惊悚] 黑彩虹暗杀令 Black.Rainbow.1989.720p.BluRay.x264-SPOOKS 7.59GB

[复制链接]
蓝光币
382
发表于 2020-8-4 08:59:23 | 显示全部楼层 |阅读模式


◎译  名 黑彩虹暗杀令
◎片  名 Black Rainbow
◎年  代 1989
◎产  地 英国
◎类  别 惊悚 / 可骇
◎语  言 英语
◎上映日期 1990-03-09
◎IMDb评分  5.9/10 from 1171 users
◎IMDb链接  https://www.imdb.com/title/tt0099143
◎豆瓣评分 0/10 from 0 users
◎豆瓣链接 https://movie.douban.com/subject/2006670/
◎片  长 103 分钟
◎导  演 Mike Hodges
◎编  剧 迈克·好汉斯 Mike Hodges
◎主  演 罗姗娜·阿奎特 Rosanna Arquette
       杰森·罗巴兹 Jason Robards
       汤姆·休斯克 Tom Hulce

◎标  签 英国电影 | 罗姗娜·阿奎特 | 美国电影 | 未下载 | FM
◎简  介

  
  暂无相关剧情先容
  1. Video
  2. ID                                       : 1
  3. Format                                   : AVC
  4. Format/Info                              : Advanced Video Codec
  5. Format profile                           : [email protected]
  6. Format settings                          : CABAC / 9 Ref Frames
  7. Format settings, CABAC                   : Yes
  8. Format settings, Reference frames        : 9 frames
  9. Codec ID                                 : V_MPEG4/ISO/AVC
  10. Duration                                 : 1 h 43 min
  11. Bit rate                                 : 9 668 kb/s
  12. Width                                    : 1 280 pixels
  13. Height                                   : 692 pixels
  14. Display aspect ratio                     : 1.85:1
  15. Frame rate mode                          : Constant
  16. Frame rate                               : 23.976 (24000/1001/189150) FPS
  17. Color space                              : YUV
  18. Chroma subsampling                       : 4:2:0
  19. Bit depth                                : 8 bits
  20. Scan type                                : Progressive
  21. Bits/(Pixel*Frame)                       : 0.455
  22. Stream size                              : 6.96 GiB (92%)
  23. Writing library                          : x264 core 161 r3018 db0d417
  24. Encoding settings                        : cabac=1 / ref=9 / deblock=1:-3:-3 / analyse=0x3:0x133 / me=umh / subme=10 / psy=1 / psy_rd=1.50:0.15 / mixed_ref=1 / me_range=24 / chroma_me=1 / trellis=2 / 8x8dct=1 / cqm=0 / deadzone=21,11 / fast_pskip=0 / chroma_qp_offset=-3 / threads=22 / lookahead_threads=3 / sliced_threads=0 / nr=0 / decimate=0 / interlaced=0 / bluray_compat=0 / constrained_intra=0 / bframes=8 / b_pyramid=2 / b_adapt=2 / b_bias=0 / direct=3 / weightb=1 / open_gop=0 / weightp=2 / keyint=250 / keyint_min=23 / scenecut=40 / intra_refresh=0 / rc=crf / mbtree=0 / crf=20.0 / qcomp=0.60 / qpmin=0 / qpmax=69 / qpstep=4 / ip_ratio=1.40 / pb_ratio=1.30 / aq=3:0.50
  25. Default                                  : Yes
  26. Forced                                   : No
  27. Color range                              : Limited
  28. Matrix coefficients                      : BT.709

  29. Audio #1
  30. ID                                       : 2
  31. Format                                   : AC-3
  32. Format/Info                              : Audio Coding 3
  33. Commercial name                          : Dolby Digital
  34. Codec ID                                 : A_AC3
  35. Duration                                 : 1 h 43 min
  36. Bit rate mode                            : Constant
  37. Bit rate                                 : 640 kb/s
  38. Channel(s)                               : 6 channels
  39. Channel layout                           : L R C LFE Ls Rs
  40. Sampling rate                            : 48.0 kHz
  41. Frame rate                               : 31.250 FPS (1536 SPF)
  42. Bit depth                                : 16 bits
  43. Compression mode                         : Lossy
  44. Stream size                              : 472 MiB (6%)
  45. Language                                 : English
  46. Service kind                             : Complete Main
  47. Default                                  : Yes
  48. Forced                                   : No

  49. Audio #2
  50. ID                                       : 3
  51. Format                                   : AAC LC
  52. Format/Info                              : Advanced Audio Codec Low Complexity
  53. Codec ID                                 : A_AAC-2
  54. Duration                                 : 1 h 43 min
  55. Bit rate                                 : 105 kb/s
  56. Channel(s)                               : 2 channels
  57. Channel layout                           : L R
  58. Sampling rate                            : 48.0 kHz
  59. Frame rate                               : 46.875 FPS (1024 SPF)
  60. Compression mode                         : Lossy
  61. Delay relative to video                  : 20 ms
  62. Stream size                              : 77.3 MiB (1%)
  63. Title                                    : Commentary
  64. Language                                 : English
  65. Default                                  : No
  66. Forced                                   : No

  67. Audio #3
  68. ID                                       : 4
  69. Format                                   : AAC LC
  70. Format/Info                              : Advanced Audio Codec Low Complexity
  71. Codec ID                                 : A_AAC-2
  72. Duration                                 : 1 h 43 min
  73. Bit rate                                 : 125 kb/s
  74. Channel(s)                               : 2 channels
  75. Channel layout                           : L R
  76. Sampling rate                            : 48.0 kHz
  77. Frame rate                               : 46.875 FPS (1024 SPF)
  78. Compression mode                         : Lossy
  79. Delay relative to video                  : 20 ms
  80. Stream size                              : 92.3 MiB (1%)
  81. Title                                    : Commentary
  82. Language                                 : English
  83. Default                                  : No
  84. Forced                                   : No

  85. Text
  86. ID                                       : 5
  87. Format                                   : PGS
  88. Muxing mode                              : zlib
  89. Codec ID                                 : S_HDMV/PGS
  90. Codec ID/Info                            : Picture based subtitle format used on BDs/HD-DVDs
  91. Duration                                 : 1 h 42 min
  92. Bit rate                                 : 31.3 kb/s
  93. Count of elements                        : 2814
  94. Stream size                              : 23.0 MiB (0%)
  95. Title                                    : SDH
  96. Language                                 : English
  97. Default                                  : No
  98. Forced                                   : No

  99. Menu
  100. 00:00:00.000                             : en:Chapter 01
  101. 00:08:42.522                             : en:Chapter 02
  102. 00:22:03.405                             : en:Chapter 03
  103. 00:25:44.418                             : en:Chapter 04
  104. 00:34:15.387                             : en:Chapter 05
  105. 00:41:15.807                             : en:Chapter 06
  106. 00:50:47.294                             : en:Chapter 07
  107. 00:58:50.444                             : en:Chapter 08
  108. 01:08:25.351                             : en:Chapter 09
  109. 01:17:44.493                             : en:Chapter 10
  110. 01:28:05.322                             : en:Chapter 11
  111. 01:36:06.177                             : en:Chapter 12
复制代码




                                       
                                       

                                       
                                       
                                       




回复

使用道具 举报

懒得打字嘛,点击右侧快捷回复 【右侧内容,后台自定义】
您需要登录后才可以回帖 登录 | 立即加入

本版积分规则

Archiver|小黑屋| 蓝光电影网 |网站地图

Copyright © 2021 Comsenz Inc. Powered by 蓝光电影网

蓝光电影网

本站内容由用户自主分享和转载自互联网,转载目的在于传递更多信息,并不代表本网赞同其观点和对其真实性负责。

如有侵权、违反国家法律政策行为,请联系我们,我们会第一时间及时清除和处理!

举报反馈邮箱:[email protected]

快速回复 返回顶部 返回列表