找回密码

蓝光电影网

查看: 32|回复: 0

[动作] 朋友2 Friend.The.Great.Legacy.2013.KOREAN.1080p.BluRay.x264.DTS-EDPH 13.39GB

[复制链接]
蓝光币
382
发表于 2021-6-6 23:24:34 | 显示全部楼层 |阅读模式


◎译  名 朋友2/Friend : The Great Legacy
◎片  名 ??2
◎年  代 2013
◎产  地 韩国
◎类  别 行动
◎语  言 韩语
◎上映日期 2013-11-14(韩国)
◎豆瓣评分 6.6/10 from 12515 users
◎豆瓣链接 https://movie.douban.com/subject/10441571/
◎片  长 124分钟
◎导  演 郭景泽 Kyung-Taek Kwak
◎编  剧 郭景泽 Kyung-Taek Kwak
◎主  演 刘五性 Oh-seong Yu
       朱镇模 Jin-mo Ju
       金宇彬 Woo-bin Kim
       张荣男 Young-nam Jang
       奇周峯 Joo-bong Ki
       姜汉娜 Han-na Kang
       朴雅仁 Park Ah-in
       韩在英 Jae-young Han
       李奎浩 Kyu-ho Lee
       崔正贤 Jung Hyun Choi
       敏智赫 Ji-hyeok Min
       郑孝彬 Ho-bin Jung
       李尚勋 Sang-hoon Lee
       赵敏俊 Min-joon Jo
       郑道元 Do-won Jung
       周锡泰 Suk-tae Joo
       林一圭 Lim il-kyu
       宋智浩 Ji-ho Song
       安世镐 Ahn Se-ho
       郑基燮 Gi-seop Jeong
       李浩哲 Ho-cheol Lee
       金汉钟 Kim Han-jong
       池承炫 Ji Seung-hyeon
       黄成俊 Sung-joon Hwang
◎标  签 韩国 | 黑帮 | 金宇彬 | 韩国电影 | 犯罪 | 剧情 | 2013 | 刘五性
◎简  介


  电影《朋友2》是由前作《朋友》的导 演郭暻泽继续执掌导筒,继续前作的故 事,而配角从刘五性和张东健酿成了他们 的儿子们。
◎获奖情况
  第35届韩国电影青龙奖 ?(2014)
  最好新人男演员(提名) 金宇彬
  人气奖 金宇彬
  
  第50届百想艺术大赏 ?(2014)
  电影类最好新人男演员(提名) 金宇彬
  1. Video
  2. ID                                       : 1
  3. Format                                   : AVC
  4. Format/Info                              : Advanced Video Codec
  5. Format profile                           : [email protected]
  6. Format settings                          : CABAC / 4 Ref Frames
  7. Format settings, CABAC                   : Yes
  8. Format settings, Reference frames        : 4 frames
  9. Codec ID                                 : V_MPEG4/ISO/AVC
  10. Duration                                 : 2 h 1 min
  11. Bit rate                                 : 14.3 Mb/s
  12. Width                                    : 1 920 pixels
  13. Height                                   : 1 036 pixels
  14. Display aspect ratio                     : 1.85:1
  15. Frame rate mode                          : Constant
  16. Frame rate                               : 23.976 (24000/1001/189150) FPS
  17. Color space                              : YUV
  18. Chroma subsampling                       : 4:2:0
  19. Bit depth                                : 8 bits
  20. Scan type                                : Progressive
  21. Bits/(Pixel*Frame)                       : 0.300
  22. Stream size                              : 12.1 GiB (90%)
  23. Writing library                          : x264 core 161 r3027 4121277
  24. Encoding settings                        : cabac=1 / ref=4 / deblock=1:-3:-3 / analyse=0x3:0x133 / me=umh / subme=11 / psy=1 / psy_rd=1.02:0.00 / mixed_ref=1 / me_range=32 / chroma_me=1 / trellis=2 / 8x8dct=1 / cqm=0 / deadzone=21,11 / fast_pskip=0 / chroma_qp_offset=-2 / threads=12 / lookahead_threads=3 / sliced_threads=0 / nr=0 / decimate=0 / interlaced=0 / bluray_compat=0 / constrained_intra=0 / bframes=16 / b_pyramid=2 / b_adapt=2 / b_bias=0 / direct=3 / weightb=1 / open_gop=0 / weightp=2 / keyint=250 / keyint_min=23 / scenecut=40 / intra_refresh=0 / rc_lookahead=250 / rc=crf / mbtree=0 / crf=18.7 / qcomp=0.65 / qpmin=0 / qpmax=69 / qpstep=4 / vbv_maxrate=62500 / vbv_bufsize=78125 / crf_max=0.0 / nal_hrd=none / filler=0 / ip_ratio=1.30 / pb_ratio=1.20 / aq=3:0.80
  25. Default                                  : No
  26. Forced                                   : No
  27. Color range                              : Limited
  28. Color primaries                          : BT.709
  29. Matrix coefficients                      : BT.709
  30. Audio
  31. ID                                       : 2
  32. Format                                   : DTS
  33. Format/Info                              : Digital Theater Systems
  34. Codec ID                                 : A_DTS
  35. Duration                                 : 2 h 1 min
  36. Bit rate mode                            : Constant
  37. Bit rate                                 : 1 509 kb/s
  38. Channel(s)                               : 6 channels
  39. Channel layout                           : C L R Ls Rs LFE
  40. Sampling rate                            : 48.0 kHz
  41. Frame rate                               : 93.750 FPS (512 SPF)
  42. Bit depth                                : 16 bits
  43. Compression mode                         : Lossy
  44. Stream size                              : 1.28 GiB (10%)
  45. Language                                 : Korean
  46. Default                                  : No
  47. Forced                                   : No
  48. Text #1
  49. ID                                       : 3
  50. Format                                   : UTF-8
  51. Codec ID                                 : S_TEXT/UTF8
  52. Codec ID/Info                            : UTF-8 Plain Text
  53. Duration                                 : 1 h 53 min
  54. Bit rate                                 : 30 b/s
  55. Count of elements                        : 1091
  56. Stream size                              : 25.3 KiB (0%)
  57. Language                                 : English
  58. Default                                  : Yes
  59. Forced                                   : No
  60. Text #2
  61. ID                                       : 4
  62. Format                                   : PGS
  63. Codec ID                                 : S_HDMV/PGS
  64. Codec ID/Info                            : Picture based subtitle format used on BDs/HD-DVDs
  65. Duration                                 : 1 h 53 min
  66. Bit rate                                 : 23.6 kb/s
  67. Count of elements                        : 2191
  68. Stream size                              : 19.2 MiB (0%)
  69. Language                                 : Korean
  70. Default                                  : No
  71. Forced                                   : No
  72. Menu
  73. 00:00:00.000                             : en:Chapter 01
  74. 00:10:18.492                             : en:Chapter 02
  75. 00:20:20.594                             : en:Chapter 03
  76. 00:31:53.745                             : en:Chapter 04
  77. 00:39:57.978                             : en:Chapter 05
  78. 00:50:47.002                             : en:Chapter 06
  79. 01:01:03.660                             : en:Chapter 07
  80. 01:11:37.960                             : en:Chapter 08
  81. 01:21:54.743                             : en:Chapter 09
  82. 01:29:27.195                             : en:Chapter 10
  83. 01:39:31.382                             : en:Chapter 11
  84. 01:47:30.444                             : en:Chapter 12
复制代码






                                       
                                       

                                       
                                       
                                       




回复

使用道具 举报

懒得打字嘛,点击右侧快捷回复 【右侧内容,后台自定义】
您需要登录后才可以回帖 登录 | 立即加入

本版积分规则

Archiver|小黑屋| 蓝光电影网 |网站地图

Copyright © 2021 Comsenz Inc. Powered by 蓝光电影网

蓝光电影网

本站内容由用户自主分享和转载自互联网,转载目的在于传递更多信息,并不代表本网赞同其观点和对其真实性负责。

如有侵权、违反国家法律政策行为,请联系我们,我们会第一时间及时清除和处理!

举报反馈邮箱:[email protected]

快速回复 返回顶部 返回列表