找回密码

蓝光电影网

查看: 17|回复: 0

[科幻] 原始星球 Fantastic.Planet.1973.REMASTERED.1080p.BluRay.x264-PSYCHD 6.55GB

[复制链接]
蓝光币
386
发表于 2021-1-7 09:17:02 | 显示全部楼层 |阅读模式
[img][/img]

◎译  名 原始星球/Fantastic Planet/奇异星球/奇异星球
◎片  名 La planète sauvage
◎年  代 1973
◎产  地 法国,捷克斯洛伐克
◎类  别 科幻 / 动画
◎语  言 法语
◎上映日期 1973-05(戛纳电影节) / 1973-12-06(法国)
◎IMDb评分  7.8/10 from 24876 users
◎IMDb链接  https://www.imdb.com/title/tt0070544/
◎豆瓣评分 8.7/10 from 14047 users
◎豆瓣链接 https://movie.douban.com/subject/1291989/
◎片  长 72 分钟
◎导  演 阿内·拉鲁 René Laloux
◎编  剧 斯蒂凡·乌尔 Stefan Wul / 洛朗·托坡尔 Roland Topor / 阿内·拉鲁 René Laloux
◎主  演 让·托帕尔 Jean Topart
       让·瓦尔蒙 Jean Valmont
       伊夫·巴萨克 Yves Barsacq
◎标  签 动画 | 科幻 | 法国 | 捷克 | 原始星球 | 1973 | 法国动画 | 动画片
◎简  介


  茫茫宇宙中一颗知名星球上,生在世体形悬殊的两种生物。占主导职位的是戴格斯人,他们体态庞大,具有极高的文化和聪明,可以使精神摆脱精神安闲游弋;与之相对的是奥姆斯人,他们具有地球人的表面和体态,社会形状原始落后,在戴格斯人眼前有如蝼蚁,因而见义勇为成为这些伟人的仆从和玩物。奥姆斯人具有顽强的生命力和滋生才能,他们的数目一日千里,形成了统治者的困扰。因而,一场针对奥姆斯人的剿灭战随即展开。这本是一场眇乎小哉的如同剿灭害虫的行动,但一个不起眼的奥姆斯人改变了双方的格式。泰尔是被一个戴格斯女孩饲养的奥姆斯男性宠物,他经过仆人的讲授机械学到了戴格斯人先辈的科学文化常识。偶然机遇,泰尔逃离戴格斯家庭,成为了带领奥姆斯人匹敌统治者的魁首……
  
  本片荣获1973年戛纳电影节出格奖。
◎获奖情况
  第26届戛纳电影节 ?(1973)
  主比赛单元金棕榈奖(提名) 阿内·拉鲁
  SpecialAward 阿内·拉鲁
  1. Video
  2. ID                                       : 1
  3. Format                                   : AVC
  4. Format/Info                              : Advanced Video Codec
  5. Format profile                           : [email protected]
  6. Format settings                          : CABAC / 4 Ref Frames
  7. Format settings, CABAC                   : Yes
  8. Format settings, Reference frames        : 4 frames
  9. Codec ID                                 : V_MPEG4/ISO/AVC
  10. Duration                                 : 1 h 12 min
  11. Bit rate                                 : 12.2 Mb/s
  12. Width                                    : 1 808 pixels
  13. Height                                   : 1 080 pixels
  14. Display aspect ratio                     : 5:3
  15. Frame rate mode                          : Constant
  16. Frame rate                               : 23.976 (24000/1001/189150) FPS
  17. Color space                              : YUV
  18. Chroma subsampling                       : 4:2:0
  19. Bit depth                                : 8 bits
  20. Scan type                                : Progressive
  21. Bits/(Pixel*Frame)                       : 0.260
  22. Stream size                              : 6.14 GiB (94%)
  23. Writing library                          : x264 core 148 r2692 64f4e24
  24. Encoding settings                        : cabac=1 / ref=4 / deblock=1:-3:-3 / analyse=0x3:0x133 / me=umh / subme=10 / psy=1 / psy_rd=1.15:0.00 / mixed_ref=1 / me_range=32 / chroma_me=1 / trellis=2 / 8x8dct=1 / cqm=0 / deadzone=21,11 / fast_pskip=1 / chroma_qp_offset=-2 / threads=24 / lookahead_threads=4 / sliced_threads=0 / nr=0 / decimate=1 / interlaced=0 / bluray_compat=0 / constrained_intra=0 / bframes=8 / b_pyramid=2 / b_adapt=2 / b_bias=0 / direct=3 / weightb=1 / open_gop=0 / weightp=2 / keyint=240 / keyint_min=24 / scenecut=40 / intra_refresh=0 / rc_lookahead=60 / rc=2pass / mbtree=1 / bitrate=12175 / ratetol=1.0 / qcomp=0.60 / qpmin=0 / qpmax=69 / qpstep=4 / cplxblur=20.0 / qblur=0.5 / ip_ratio=1.40 / aq=3:0.75
  25. Language                                 : English
  26. Default                                  : Yes
  27. Forced                                   : No

  28. Audio #1
  29. ID                                       : 2
  30. Format                                   : FLAC
  31. Format/Info                              : Free Lossless Audio Codec
  32. Codec ID                                 : A_FLAC
  33. Duration                                 : 1 h 12 min
  34. Bit rate mode                            : Variable
  35. Bit rate                                 : 620 kb/s
  36. Channel(s)                               : 1 channel
  37. Channel layout                           : C
  38. Sampling rate                            : 48.0 kHz
  39. Frame rate                               : 11.719 FPS (4096 SPF)
  40. Bit depth                                : 24 bits
  41. Compression mode                         : Lossless
  42. Stream size                              : 321 MiB (5%)
  43. Writing library                          : libFLAC 1.2.1 (UTC 2007-09-17)
  44. Language                                 : French
  45. Default                                  : Yes
  46. Forced                                   : No

  47. Audio #2
  48. ID                                       : 3
  49. Format                                   : AC-3
  50. Format/Info                              : Audio Coding 3
  51. Commercial name                          : Dolby Digital
  52. Codec ID                                 : A_AC3
  53. Duration                                 : 1 h 12 min
  54. Bit rate mode                            : Constant
  55. Bit rate                                 : 192 kb/s
  56. Channel(s)                               : 1 channel
  57. Channel layout                           : C
  58. Sampling rate                            : 48.0 kHz
  59. Frame rate                               : 31.250 FPS (1536 SPF)
  60. Compression mode                         : Lossy
  61. Stream size                              : 99.2 MiB (1%)
  62. Language                                 : English
  63. Service kind                             : Complete Main
  64. Default                                  : No
  65. Forced                                   : No

  66. Text
  67. ID                                       : 4
  68. Format                                   : UTF-8
  69. Codec ID                                 : S_TEXT/UTF8
  70. Codec ID/Info                            : UTF-8 Plain Text
  71. Duration                                 : 1 h 9 min
  72. Bit rate                                 : 29 b/s
  73. Count of elements                        : 389
  74. Stream size                              : 15.3 KiB (0%)
  75. Language                                 : English
  76. Default                                  : Yes
  77. Forced                                   : Yes

  78. Menu
  79. 00:00:00.000                             : en:00:00:00.000
  80. 00:01:39.725                             : en:00:01:39.725
  81. 00:07:48.802                             : en:00:07:48.802
  82. 00:11:45.872                             : en:00:11:45.872
  83. 00:15:07.406                             : en:00:15:07.406
  84. 00:17:52.488                             : en:00:17:52.488
  85. 00:19:42.890                             : en:00:19:42.890
  86. 00:21:36.670                             : en:00:21:36.670
  87. 00:23:52.431                             : en:00:23:52.431
  88. 00:26:28.796                             : en:00:26:28.796
  89. 00:31:51.618                             : en:00:31:51.618
  90. 00:34:07.045                             : en:00:34:07.045
  91. 00:38:37.273                             : en:00:38:37.273
  92. 00:42:41.976                             : en:00:42:41.976
  93. 00:45:42.239                             : en:00:45:42.239
  94. 00:52:01.285                             : en:00:52:01.285
  95. 00:54:59.671                             : en:00:54:59.671
  96. 00:58:56.742                             : en:00:58:56.742
  97. 01:04:09.554                             : en:01:04:09.554
  98. 01:10:09.622                             : en:01:10:09.622
复制代码



                                       
                                       

                                       
                                       
                                       




回复

使用道具 举报

懒得打字嘛,点击右侧快捷回复 【右侧内容,后台自定义】
您需要登录后才可以回帖 登录 | 立即加入

本版积分规则

Archiver|小黑屋| 蓝光电影网 |网站地图

Copyright © 2021 Comsenz Inc. Powered by 蓝光电影网

蓝光电影网

本站内容由用户自主分享和转载自互联网,转载目的在于传递更多信息,并不代表本网赞同其观点和对其真实性负责。

如有侵权、违反国家法律政策行为,请联系我们,我们会第一时间及时清除和处理!

举报反馈邮箱:[email protected]

快速回复 返回顶部 返回列表