找回密码

蓝光电影网

查看: 30|回复: 0

[恐怖] 长腿人 Shanks.1974.1080p.BluRay.x264.FLAC.1.0-HANDJOB 8.00GB

[复制链接]
蓝光币
519
发表于 2021-2-4 09:38:32 | 显示全部楼层 |阅读模式


◎译  名 长腿人
◎片  名 Shanks
◎年  代 1974
◎产  地 美国
◎类  别 可骇 / 奇异
◎语  言 英语
◎上映日期 1974-10-09
◎IMDb评分  5.7/10 from 523 users
◎IMDb链接  https://www.imdb.com/title/tt0072149/
◎豆瓣评分 /10 from 0 users
◎豆瓣链接 https://movie.douban.com/subject/2295777/
◎片  长 93 分钟
◎导  演 威廉·卡斯尔 William Castle
◎主  演 马塞尔·卡尔内 Marcel Carné
       海伦娜·卡莲诺特兹 Helena Kallianiotes
       Read Morgan
       Cindy Eilbacher
       菲利普·克莱 Philippe Clay
       Don Calfa
       齐莉娅·切尔顿 Tsilla Chelton
       威廉·卡斯尔 William Castle
       拉瑞·比肖普 Larry Bishop
       马塞尔·马索 Marcel Marceau
◎标  签 美国 | 可骇 | 奇异 | William_Castle | 美国电影 | cult | WilliamCastle | §
◎简  介


  马尔科姆·沙克斯是一个哀痛而孤独的人,他是聋哑人,他和他刻毒的姐姐和她丈夫生活在一路,他们喜好让他疾苦。看来,他唯一的兴趣就是建造和控制木偶。多亏了他的技术,他获得了沃克博士的尝试室助理的工作。沃克博士正在研讨若何经过在关键的神经点上的电极上的电极来重新激活死尸,并像在线上一样操纵尸身。当教授忽然归天的时辰,Shanks想到把尝试的成果利用到人体上的想法,然后起头实施他的报复。
◎获奖情况
  第47届奥斯卡金像奖 ?(1975)
  剧情片最好原创配乐(提名) 阿历克斯·诺斯
  1. Video
  2. ID                                       : 1
  3. Format                                   : AVC
  4. Format/Info                              : Advanced Video Codec
  5. Format profile                           : [email protected]
  6. Format settings                          : CABAC / 4 Ref Frames
  7. Format settings, CABAC                   : Yes
  8. Format settings, Reference frames        : 4 frames
  9. Codec ID                                 : V_MPEG4/ISO/AVC
  10. Duration                                 : 1 h 33 min
  11. Bit rate                                 : 11.9 Mb/s
  12. Width                                    : 1 920 pixels
  13. Height                                   : 1 080 pixels
  14. Display aspect ratio                     : 16:9
  15. Frame rate mode                          : Constant
  16. Frame rate                               : 23.976 (24000/1001/189150) FPS
  17. Color space                              : YUV
  18. Chroma subsampling                       : 4:2:0
  19. Bit depth                                : 8 bits
  20. Scan type                                : Progressive
  21. Bits/(Pixel*Frame)                       : 0.240
  22. Stream size                              : 7.80 GiB (97%)
  23. Writing library                          : x264 core 157 r2935 545de2f
  24. Encoding settings                        : cabac=1 / ref=4 / deblock=1:-3:-3 / analyse=0x3:0x133 / me=umh / subme=10 / psy=1 / psy_rd=1.00:0.00 / mixed_ref=1 / me_range=32 / chroma_me=1 / trellis=2 / 8x8dct=1 / cqm=0 / deadzone=21,11 / fast_pskip=0 / chroma_qp_offset=-2 / threads=34 / lookahead_threads=8 / sliced_threads=0 / nr=0 / decimate=0 / interlaced=0 / bluray_compat=0 / constrained_intra=0 / bframes=16 / b_pyramid=2 / b_adapt=2 / b_bias=0 / direct=3 / weightb=1 / open_gop=0 / weightp=2 / keyint=240 / keyint_min=24 / scenecut=40 / intra_refresh=0 / rc_lookahead=60 / rc=crf / mbtree=0 / crf=23.0 / qcomp=0.60 / qpmin=0 / qpmax=69 / qpstep=4 / vbv_maxrate=62500 / vbv_bufsize=78125 / crf_max=0.0 / nal_hrd=none / filler=0 / ip_ratio=1.40 / pb_ratio=1.30 / aq=2:1.00
  25. Default                                  : Yes
  26. Forced                                   : No
  27. Color range                              : Limited
  28. Color primaries                          : BT.709
  29. Transfer characteristics                 : BT.709
  30. Matrix coefficients                      : BT.709
  31. Audio
  32. ID                                       : 2
  33. Format                                   : FLAC
  34. Format/Info                              : Free Lossless Audio Codec
  35. Codec ID                                 : A_FLAC
  36. Duration                                 : 1 h 33 min
  37. Bit rate mode                            : Variable
  38. Bit rate                                 : 304 kb/s
  39. Channel(s)                               : 1 channel
  40. Channel layout                           : C
  41. Sampling rate                            : 48.0 kHz
  42. Frame rate                               : 11.719 FPS (4096 SPF)
  43. Bit depth                                : 16 bits
  44. Compression mode                         : Lossless
  45. Stream size                              : 203 MiB (2%)
  46. Writing library                          : libFLAC 1.2.1 (UTC 2007-09-17)
  47. Language                                 : English
  48. Default                                  : Yes
  49. Forced                                   : No
  50. Menu
  51. 00:00:00.000                             : :Chapter 1
  52. 00:08:17.956                             : :Chapter 2
  53. 00:21:25.159                             : :Chapter 3
  54. 00:33:41.937                             : :Chapter 4
  55. 00:42:40.600                             : :Chapter 5
  56. 00:59:11.423                             : :Chapter 6
  57. 01:11:03.551                             : :Chapter 7
  58. 01:23:27.878                             : :Chapter 8
复制代码






                                       
                                       

                                       
                                       
                                       




回复

使用道具 举报

懒得打字嘛,点击右侧快捷回复 【右侧内容,后台自定义】
您需要登录后才可以回帖 登录 | 立即加入

本版积分规则

Archiver|小黑屋| 蓝光电影网 |网站地图

Copyright © 2021 Comsenz Inc. Powered by 蓝光电影网

蓝光电影网

本站内容由用户自主分享和转载自互联网,转载目的在于传递更多信息,并不代表本网赞同其观点和对其真实性负责。

如有侵权、违反国家法律政策行为,请联系我们,我们会第一时间及时清除和处理!

举报反馈邮箱:[email protected]

快速回复 返回顶部 返回列表