找回密码

蓝光电影网

查看: 7|回复: 0

[喜剧] 方托马斯大战苏格兰场/方托马斯在苏格兰 Fantomas.Against.Scotland.Yard.1967.1080p.BluRay.x264-USURY 7.95GB

[复制链接]
蓝光币
426
发表于 2020-8-17 10:17:33 | 显示全部楼层 |阅读模式


◎译  名 方托马斯大战苏格兰场 / 方托马斯在苏格兰
◎片  名 Fant?mas contre Scotland Yard
◎年  代 1967
◎产  地 法国 / 意大利
◎类  别 笑剧 / 犯罪 / 奇异 / 冒险
◎语  言 法语
◎上映日期 1967-03-16(法国)
◎IMDb评分  6.8/10 from 5917 users
◎IMDb链接  https://www.imdb.com/title/tt0060400
◎豆瓣评分 7.5/10 from 736 users
◎豆瓣链接 https://movie.douban.com/subject/1902701/
◎片  长 104 分钟
◎导  演 安德里·胡尼贝勒 André Hunebelle
◎编  剧 皮埃尔·苏维德 Pierre Souvestre / 马塞尔·阿兰 Marcel Allain / Jean Halain / Pierre Foucaud
◎主  演 路易·德·菲耐斯 Louis de Funès
       让·马莱 Jean Marais
       麦琳娜·德蒙吉奥 Mylène Demongeot

◎标  签 法国 | 笑剧 | 路易德菲奈斯 | 法国电影 | 犯罪 | 路易·德·菲耐斯 | 1967 | 科幻
◎简  介

  
  大盗方托马斯(让·马莱 Jean Marais 饰)易容潜入了拉谢里爵士(让-罗歇·科斯西蒙 Jean-Roger Caussimon 饰)家,向在那边集会的一干富翁发出了杀人预告,方托马斯宣称假如不能在预定的日期之前向他交纳巨额的“保存税”,他就会一个接一个的将富翁们杀死。无法之下,拉谢里爵士只得报了警。
  记者方多(让·马莱 Jean Marais 饰)和警长瑞福(路易·德·菲耐斯 Louis de Funès 饰)是方托马斯的老对手了,他们一向想将后者缉捕归案,却频频遭其嘲谑。警长一行人来到了拉谢里爵士家,可频频出现的只要警长可以看见的凶案现场让大师起头渐渐思疑起警长的精神能否一般,而这一切都是方托马斯一手策划的诡计。
  1. Video
  2. ID                                       : 1
  3. Format                                   : AVC
  4. Format/Info                              : Advanced Video Codec
  5. Format profile                           : [email protected]
  6. Format settings                          : CABAC / 5 Ref Frames
  7. Format settings, CABAC                   : Yes
  8. Format settings, Reference frames        : 5 frames
  9. Codec ID                                 : V_MPEG4/ISO/AVC
  10. Duration                                 : 1 h 40 min
  11. Bit rate                                 : 10.5 Mb/s
  12. Width                                    : 1 920 pixels
  13. Height                                   : 824 pixels
  14. Display aspect ratio                     : 2.35:1
  15. Original display aspect ratio            : 2.35:1
  16. Frame rate mode                          : Constant
  17. Frame rate                               : 24.000 FPS
  18. Color space                              : YUV
  19. Chroma subsampling                       : 4:2:0
  20. Bit depth                                : 8 bits
  21. Scan type                                : Progressive
  22. Bits/(Pixel*Frame)                       : 0.276
  23. Stream size                              : 7.40 GiB (93%)
  24. Writing library                          : x264 core 150 r2829 d1fe6fd
  25. Encoding settings                        : cabac=1 / ref=5 / deblock=1:-3:-3 / analyse=0x3:0x133 / me=umh / subme=9 / psy=1 / psy_rd=1.00:0.00 / mixed_ref=1 / me_range=16 / chroma_me=1 / trellis=2 / 8x8dct=1 / cqm=0 / deadzone=21,11 / fast_pskip=0 / chroma_qp_offset=-2 / threads=26 / lookahead_threads=2 / sliced_threads=0 / nr=0 / decimate=1 / interlaced=0 / bluray_compat=0 / constrained_intra=0 / bframes=3 / b_pyramid=2 / b_adapt=1 / b_bias=0 / direct=3 / weightb=1 / open_gop=0 / weightp=2 / keyint=250 / keyint_min=24 / scenecut=40 / intra_refresh=0 / rc_lookahead=50 / rc=2pass / mbtree=1 / bitrate=10498 / ratetol=1.0 / qcomp=0.60 / qpmin=0 / qpmax=69 / qpstep=4 / cplxblur=20.0 / qblur=0.5 / ip_ratio=1.40 / aq=1:1.00
  26. Language                                 : English
  27. Default                                  : Yes
  28. Forced                                   : No

  29. Audio
  30. ID                                       : 2
  31. Format                                   : DTS
  32. Format/Info                              : Digital Theater Systems
  33. Codec ID                                 : A_DTS
  34. Duration                                 : 1 h 40 min
  35. Bit rate mode                            : Constant
  36. Bit rate                                 : 768 kb/s
  37. Channel(s)                               : 2 channels
  38. Channel layout                           : L R
  39. Sampling rate                            : 48.0 kHz
  40. Frame rate                               : 93.750 FPS (512 SPF)
  41. Bit depth                                : 24 bits
  42. Compression mode                         : Lossy
  43. Stream size                              : 555 MiB (7%)
  44. Language                                 : French
  45. Default                                  : Yes
  46. Forced                                   : No

  47. Text
  48. ID                                       : 3
  49. Format                                   : UTF-8
  50. Codec ID                                 : S_TEXT/UTF8
  51. Codec ID/Info                            : UTF-8 Plain Text
  52. Duration                                 : 1 h 39 min
  53. Bit rate                                 : 40 b/s
  54. Count of elements                        : 1037
  55. Stream size                              : 30.0 KiB (0%)
  56. Title                                    : forced
  57. Language                                 : English
  58. Default                                  : Yes
  59. Forced                                   : Yes

  60. Menu
  61. 00:00:00.000                             : en:00:00:00.000
  62. 00:10:00.125                             : en:00:10:00.125
  63. 00:17:52.625                             : en:00:17:52.625
  64. 00:26:38.000                             : en:00:26:38.000
  65. 00:39:46.750                             : en:00:39:46.750
  66. 00:47:17.208                             : en:00:47:17.208
  67. 00:54:57.083                             : en:00:54:57.083
  68. 01:04:40.583                             : en:01:04:40.583
  69. 01:14:11.958                             : en:01:14:11.958
  70. 01:21:55.083                             : en:01:21:55.083
  71. 01:31:25.458                             : en:01:31:25.458
  72. 01:35:12.625                             : en:01:35:12.625
复制代码




                                       
                                       

                                       
                                       
                                       




回复

使用道具 举报

懒得打字嘛,点击右侧快捷回复 【右侧内容,后台自定义】
您需要登录后才可以回帖 登录 | 立即加入

本版积分规则

Archiver|小黑屋| 蓝光电影网 |网站地图

Copyright © 2021 Comsenz Inc. Powered by 蓝光电影网

蓝光电影网

本站内容由用户自主分享和转载自互联网,转载目的在于传递更多信息,并不代表本网赞同其观点和对其真实性负责。

如有侵权、违反国家法律政策行为,请联系我们,我们会第一时间及时清除和处理!

举报反馈邮箱:[email protected]

快速回复 返回顶部 返回列表