找回密码

蓝光电影网

查看: 25|回复: 0

[科幻] 放大现实 Reality.XL.2012.GERMAN.1080p.BluRay.x264.DTS-HDC 6.54GB

[复制链接]
蓝光币
515
发表于 2020-12-24 09:06:54 | 显示全部楼层 |阅读模式
[img][/img]

◎译  名 放大现实
◎片  名 Reality XL
◎年  代 2012
◎产  地 德国
◎类  别 科幻 / 惊悚
◎上映日期 2012-01-12(德国)
◎IMDb评分  5.2/10 from 189 users
◎IMDb链接  https://www.imdb.com/title/tt2145849/
◎豆瓣评分 /10 from 0 users
◎豆瓣链接 https://movie.douban.com/subject/10450691/
◎片  长 81分钟
◎主  演 海纳·劳特尔巴赫 Heiner Lauterbach
       Max Tidof
       安妮卡·布伦德尔 Annika Blendl
◎标  签 德国 | 科幻 | 2012 | 惊悚 | M德国 | 德国电影 | 美國 | 电影
◎简  介


  著名的康斯坦丁·卡鲁斯教授在欧洲核子研讨中心CERN工作。在一次尝试后,当他分开粒子加速器控制室的时辰,和他一路工作的研讨小组全员消失得无影无踪。到底尝试时代发生了什么,观察员罗宾·斯帕克特和索菲亚·德克斯对此展开了观察。卡鲁斯自己也布满谜团。还有奥秘的速记员安东尼到底饰演着什么脚色
  1. Video
  2. ID                                       : 1
  3. Format                                   : AVC
  4. Format/Info                              : Advanced Video Codec
  5. Format profile                           : [email protected]
  6. Format settings                          : CABAC / 5 Ref Frames
  7. Format settings, CABAC                   : Yes
  8. Format settings, Reference frames        : 5 frames
  9. Codec ID                                 : V_MPEG4/ISO/AVC
  10. Duration                                 : 1 h 21 min
  11. Bit rate                                 : 10.0 Mb/s
  12. Width                                    : 1 920 pixels
  13. Height                                   : 828 pixels
  14. Display aspect ratio                     : 2.35:1
  15. Frame rate mode                          : Constant
  16. Frame rate                               : 24.000 FPS
  17. Color space                              : YUV
  18. Chroma subsampling                       : 4:2:0
  19. Bit depth                                : 8 bits
  20. Scan type                                : Progressive
  21. Bits/(Pixel*Frame)                       : 0.262
  22. Stream size                              : 5.68 GiB (87%)
  23. Writing library                          : x264 core 125 r2200 999b753
  24. Encoding settings                        : cabac=1 / ref=5 / deblock=1:-3:-3 / analyse=0x3:0x133 / me=umh / subme=10 / psy=1 / psy_rd=1.00:0.00 / mixed_ref=1 / me_range=48 / chroma_me=1 / trellis=2 / 8x8dct=1 / cqm=0 / deadzone=21,11 / fast_pskip=1 / chroma_qp_offset=-2 / threads=12 / lookahead_threads=2 / sliced_threads=0 / nr=0 / decimate=0 / interlaced=0 / bluray_compat=0 / constrained_intra=0 / bframes=7 / b_pyramid=2 / b_adapt=2 / b_bias=0 / direct=3 / weightb=1 / open_gop=0 / weightp=2 / keyint=250 / keyint_min=24 / scenecut=40 / intra_refresh=0 / rc_lookahead=60 / rc=2pass / mbtree=0 / bitrate=10013 / ratetol=1.0 / qcomp=0.60 / qpmin=0 / qpmax=69 / qpstep=4 / cplxblur=20.0 / qblur=0.5 / vbv_maxrate=30000 / vbv_bufsize=30000 / nal_hrd=none / ip_ratio=1.50 / pb_ratio=1.30 / aq=1:1.00
  25. Language                                 : English
  26. Default                                  : Yes
  27. Forced                                   : No
  28. Audio
  29. ID                                       : 2
  30. Format                                   : DTS
  31. Format/Info                              : Digital Theater Systems
  32. Codec ID                                 : A_DTS
  33. Duration                                 : 1 h 21 min
  34. Bit rate mode                            : Constant
  35. Bit rate                                 : 1 509 kb/s
  36. Channel(s)                               : 6 channels
  37. Channel layout                           : C L R Ls Rs LFE
  38. Sampling rate                            : 48.0 kHz
  39. Frame rate                               : 93.750 FPS (512 SPF)
  40. Bit depth                                : 24 bits
  41. Compression mode                         : Lossy
  42. Stream size                              : 880 MiB (13%)
  43. Default                                  : Yes
  44. Forced                                   : No
  45. Text
  46. ID                                       : 3
  47. Format                                   : UTF-8
  48. Codec ID                                 : S_TEXT/UTF8
  49. Codec ID/Info                            : UTF-8 Plain Text
  50. Duration                                 : 1 h 12 min
  51. Bit rate                                 : 58 b/s
  52. Count of elements                        : 974
  53. Stream size                              : 30.9 KiB (0%)
  54. Language                                 : English
  55. Default                                  : Yes
  56. Forced                                   : No
复制代码



                                       
                                       

                                       
                                       
                                       




回复

使用道具 举报

懒得打字嘛,点击右侧快捷回复 【右侧内容,后台自定义】
您需要登录后才可以回帖 登录 | 立即加入

本版积分规则

Archiver|小黑屋| 蓝光电影网 |网站地图

Copyright © 2021 Comsenz Inc. Powered by 蓝光电影网

蓝光电影网

本站内容由用户自主分享和转载自互联网,转载目的在于传递更多信息,并不代表本网赞同其观点和对其真实性负责。

如有侵权、违反国家法律政策行为,请联系我们,我们会第一时间及时清除和处理!

举报反馈邮箱:[email protected]

快速回复 返回顶部 返回列表