找回密码

蓝光电影网

查看: 14|回复: 0

[动作] 濒危物种 Endangered.Species.2021.1080p.BluRay.x264-WoAT 11.22GB

[复制链接]
蓝光币
382
发表于 2021-6-2 08:34:28 | 显示全部楼层 |阅读模式
[img][/img]

◎译  名 濒危物种
◎片  名 Endangered Species
◎年  代 2021
◎产  地 美国
◎类  别 行动 / 惊悚
◎语  言 英语
◎上映日期 2021-05-28(美国)
◎豆瓣评分 4.6/10 from 112 users
◎豆瓣链接 https://movie.douban.com/subject/35435437/
◎片  长 101分钟
◎编  剧 Paul Chronnell / 伊莎贝尔·巴塞特  Isabel Bassett
◎主  演 菲利普·文切斯特 Philip Winchester
       迈克尔·约翰斯顿 Michael Johnston
       克里斯·费舍 Chris Fisher
       杰瑞·奥康奈尔 Jerry O'Connell
       丽贝卡·罗梅恩 Rebecca Romijn
       伊莎贝尔·巴塞特  Isabel Bassett
◎标  签 美国 | 冒险 | 2021 | 惊悚 | 美国电影 | 动保 | 犯罪 | 行动
◎简  介


  ENDANGERED SPECIES is an intense, action packed survival-adventure about a wealthy American family who travel to the vast African wilderness of Kenya hoping for a dream vacation filled with excitement, bonding and a chance to fix the growing rifts within their family. But when their safari vehicle is attacked by a rhino protecting her calf, the family is left stranded miles from help and their dream vacation turns into a nightmarish struggle for survival in a world where they are the bottom of the food chain.
  1. Video
  2. ID                                       : 1
  3. Format                                   : AVC
  4. Format/Info                              : Advanced Video Codec
  5. Format profile                           : [email protected]
  6. Format settings                          : CABAC / 5 Ref Frames
  7. Format settings, CABAC                   : Yes
  8. Format settings, Reference frames        : 5 frames
  9. Codec ID                                 : V_MPEG4/ISO/AVC
  10. Duration                                 : 1 h 41 min
  11. Bit rate                                 : 11.8 Mb/s
  12. Width                                    : 1 920 pixels
  13. Height                                   : 800 pixels
  14. Display aspect ratio                     : 2.40:1
  15. Frame rate mode                          : Constant
  16. Frame rate                               : 23.976 (24000/1001/189150) FPS
  17. Color space                              : YUV
  18. Chroma subsampling                       : 4:2:0
  19. Bit depth                                : 8 bits
  20. Scan type                                : Progressive
  21. Bits/(Pixel*Frame)                       : 0.320
  22. Stream size                              : 8.32 GiB (74%)
  23. Writing library                          : x264 core 163 r3059 b684ebe
  24. Encoding settings                        : cabac=1 / ref=5 / deblock=1:-3:-3 / analyse=0x3:0x133 / me=umh / subme=9 / psy=1 / psy_rd=1.00:0.00 / mixed_ref=1 / me_range=32 / chroma_me=1 / trellis=2 / 8x8dct=1 / cqm=0 / deadzone=21,11 / fast_pskip=0 / chroma_qp_offset=-2 / threads=16 / lookahead_threads=2 / sliced_threads=0 / nr=0 / decimate=0 / interlaced=0 / bluray_compat=0 / constrained_intra=0 / bframes=8 / b_pyramid=2 / b_adapt=2 / b_bias=0 / direct=3 / weightb=1 / open_gop=0 / weightp=2 / keyint=250 / keyint_min=23 / scenecut=40 / intra_refresh=0 / rc_lookahead=60 / rc=crf / mbtree=1 / crf=16.0 / qcomp=0.60 / qpmin=0 / qpmax=69 / qpstep=4 / ip_ratio=1.40 / aq=3:0.88
  25. Default                                  : Yes
  26. Forced                                   : No
  27. Color range                              : Limited
  28. Matrix coefficients                      : BT.709

  29. Audio
  30. ID                                       : 2
  31. Format                                   : DTS XLL
  32. Format/Info                              : Digital Theater Systems
  33. Commercial name                          : DTS-HD Master Audio
  34. Codec ID                                 : A_DTS
  35. Duration                                 : 1 h 41 min
  36. Bit rate mode                            : Variable
  37. Bit rate                                 : 4 040 kb/s
  38. Channel(s)                               : 6 channels
  39. Channel layout                           : C L R Ls Rs LFE
  40. Sampling rate                            : 48.0 kHz
  41. Frame rate                               : 93.750 FPS (512 SPF)
  42. Bit depth                                : 24 bits
  43. Compression mode                         : Lossless
  44. Stream size                              : 2.85 GiB (25%)
  45. Title                                    : English
  46. Language                                 : English
  47. Default                                  : No
  48. Forced                                   : No

  49. Text #1
  50. ID                                       : 3
  51. Format                                   : PGS
  52. Muxing mode                              : zlib
  53. Codec ID                                 : S_HDMV/PGS
  54. Codec ID/Info                            : Picture based subtitle format used on BDs/HD-DVDs
  55. Duration                                 : 1 h 33 min
  56. Bit rate                                 : 47.2 kb/s
  57. Count of elements                        : 3424
  58. Stream size                              : 31.7 MiB (0%)
  59. Title                                    : English
  60. Language                                 : English
  61. Default                                  : No
  62. Forced                                   : No

  63. Text #2
  64. ID                                       : 4
  65. Format                                   : PGS
  66. Muxing mode                              : zlib
  67. Codec ID                                 : S_HDMV/PGS
  68. Codec ID/Info                            : Picture based subtitle format used on BDs/HD-DVDs
  69. Duration                                 : 1 h 39 min
  70. Bit rate                                 : 34.7 kb/s
  71. Count of elements                        : 2796
  72. Stream size                              : 24.7 MiB (0%)
  73. Title                                    : Spanish
  74. Language                                 : Spanish
  75. Default                                  : No
  76. Forced                                   : No

  77. Text #3
  78. ID                                       : 5
  79. Format                                   : PGS
  80. Muxing mode                              : zlib
  81. Codec ID                                 : S_HDMV/PGS
  82. Codec ID/Info                            : Picture based subtitle format used on BDs/HD-DVDs
  83. Duration                                 : 1 h 38 min
  84. Bit rate                                 : 36.3 kb/s
  85. Count of elements                        : 2882
  86. Stream size                              : 25.6 MiB (0%)
  87. Title                                    : Portuguese
  88. Language                                 : Portuguese
  89. Default                                  : No
  90. Forced                                   : No

  91. Menu
  92. 00:00:00.000                             : en:Chapter 01
  93. 00:06:56.499                             : en:Chapter 02
  94. 00:12:30.875                             : en:Chapter 03
  95. 00:18:54.258                             : en:Chapter 04
  96. 00:24:41.980                             : en:Chapter 05
  97. 00:32:15.433                             : en:Chapter 06
  98. 00:38:27.722                             : en:Chapter 07
  99. 00:48:03.339                             : en:Chapter 08
  100. 00:52:25.934                             : en:Chapter 09
  101. 00:56:25.591                             : en:Chapter 10
  102. 01:03:48.992                             : en:Chapter 11
  103. 01:08:07.709                             : en:Chapter 12
  104. 01:12:27.093                             : en:Chapter 13
  105. 01:23:06.648                             : en:Chapter 14
  106. 01:27:58.690                             : en:Chapter 15
  107. 01:33:29.938                             : en:Chapter 16
复制代码




                                       
                                       

                                       
                                       
                                       




回复

使用道具 举报

懒得打字嘛,点击右侧快捷回复 【右侧内容,后台自定义】
您需要登录后才可以回帖 登录 | 立即加入

本版积分规则

Archiver|小黑屋| 蓝光电影网 |网站地图

Copyright © 2021 Comsenz Inc. Powered by 蓝光电影网

蓝光电影网

本站内容由用户自主分享和转载自互联网,转载目的在于传递更多信息,并不代表本网赞同其观点和对其真实性负责。

如有侵权、违反国家法律政策行为,请联系我们,我们会第一时间及时清除和处理!

举报反馈邮箱:[email protected]

快速回复 返回顶部 返回列表