找回密码

蓝光电影网

查看: 8|回复: 0

[惊悚] 先知游戏 The.Prophets.Game.2000.720p.BluRay.x264-UNVEiL 2.78GB

[复制链接]
蓝光币
382
发表于 2021-3-31 08:30:31 | 显示全部楼层 |阅读模式


◎译  名 先知游戏
◎片  名 The Prophet's Game
◎年  代 1999
◎产  地 美国
◎类  别 惊悚
◎语  言 英语
◎上映日期 2000-06-06
◎IMDb评分  5/10 from 924 users
◎IMDb链接  https://www.imdb.com/title/tt0199974/
◎豆瓣评分 /10 from 0 users
◎豆瓣链接 https://movie.douban.com/subject/1302295/
◎片  长 106 分钟
◎主  演 丹尼斯·霍珀 Dennis Hopper
       斯蒂芬尼·齐姆巴丽斯特 Stephanie Zimbalist
       桑德拉·洛克 Sondra Locke
       香侬·惠利 Shannon Whirry
       唐·斯瓦泽 Don Swayze
       乔·佩尼 Joe Penny
       Dorian Lopinto
       Thorsten Kaye
       Tracey Birdsall-Smith
       Andrew Ducote
       玛格丽特·布赖 Margaret Blye
       杰佛里·刘易斯 Geoffrey Lewis
       罗伯特·金蒂 Robert Ginty
       迈克尔·多恩 Michael Dorn
       丝凯·麦柯·巴楚沙 Skye McCole Bartusiak
       泰勒·摩森 Taylor Momsen
       达林·库珀 Darin Cooper
◎标  签 西片 | 美国电影 | 暴力性粗口 | 惊悚片
◎简  介


  暂无相关剧情先容
  1. Video
  2. ID                                       : 1
  3. Format                                   : AVC
  4. Format/Info                              : Advanced Video Codec
  5. Format profile                           : [email protected]
  6. Format settings                          : CABAC / 8 Ref Frames
  7. Format settings, CABAC                   : Yes
  8. Format settings, Reference frames        : 8 frames
  9. Codec ID                                 : V_MPEG4/ISO/AVC
  10. Duration                                 : 1 h 48 min
  11. Bit rate                                 : 2 976 kb/s
  12. Width                                    : 1 280 pixels
  13. Height                                   : 694 pixels
  14. Display aspect ratio                     : 1.85:1
  15. Frame rate mode                          : Constant
  16. Frame rate                               : 23.976 (24000/1001/189150) FPS
  17. Color space                              : YUV
  18. Chroma subsampling                       : 4:2:0
  19. Bit depth                                : 8 bits
  20. Scan type                                : Progressive
  21. Bits/(Pixel*Frame)                       : 0.140
  22. Stream size                              : 2.25 GiB (81%)
  23. Writing library                          : x264 core 161 r3048 b86ae3c
  24. Encoding settings                        : cabac=1 / ref=8 / deblock=1:-3:-3 / analyse=0x3:0x133 / me=umh / subme=9 / psy=1 / psy_rd=1.00:0.00 / mixed_ref=1 / me_range=16 / chroma_me=1 / trellis=2 / 8x8dct=1 / cqm=0 / deadzone=21,11 / fast_pskip=0 / chroma_qp_offset=-2 / threads=22 / lookahead_threads=1 / sliced_threads=0 / nr=0 / decimate=1 / interlaced=0 / bluray_compat=0 / constrained_intra=0 / bframes=3 / b_pyramid=2 / b_adapt=2 / b_bias=0 / direct=3 / weightb=1 / open_gop=0 / weightp=2 / keyint=250 / keyint_min=23 / scenecut=40 / intra_refresh=0 / rc_lookahead=60 / rc=crf / mbtree=1 / crf=17.0 / qcomp=0.60 / qpmin=0 / qpmax=69 / qpstep=4 / ip_ratio=1.40 / aq=1:1.00
  25. Language                                 : English
  26. Default                                  : Yes
  27. Forced                                   : No

  28. Audio
  29. ID                                       : 2
  30. Format                                   : AC-3
  31. Format/Info                              : Audio Coding 3
  32. Commercial name                          : Dolby Digital
  33. Codec ID                                 : A_AC3
  34. Duration                                 : 1 h 48 min
  35. Bit rate mode                            : Constant
  36. Bit rate                                 : 640 kb/s
  37. Channel(s)                               : 6 channels
  38. Channel layout                           : L R C LFE Ls Rs
  39. Sampling rate                            : 48.0 kHz
  40. Frame rate                               : 31.250 FPS (1536 SPF)
  41. Compression mode                         : Lossy
  42. Stream size                              : 495 MiB (17%)
  43. Language                                 : English
  44. Service kind                             : Complete Main
  45. Default                                  : Yes
  46. Forced                                   : No

  47. Text #1
  48. ID                                       : 3
  49. Format                                   : PGS
  50. Muxing mode                              : zlib
  51. Codec ID                                 : S_HDMV/PGS
  52. Codec ID/Info                            : Picture based subtitle format used on BDs/HD-DVDs
  53. Duration                                 : 1 h 43 min
  54. Bit rate                                 : 28.1 kb/s
  55. Count of elements                        : 2352
  56. Stream size                              : 20.9 MiB (1%)
  57. Language                                 : English
  58. Default                                  : No
  59. Forced                                   : No

  60. Text #2
  61. ID                                       : 4
  62. Format                                   : PGS
  63. Muxing mode                              : zlib
  64. Codec ID                                 : S_HDMV/PGS
  65. Codec ID/Info                            : Picture based subtitle format used on BDs/HD-DVDs
  66. Duration                                 : 1 h 45 min
  67. Bit rate                                 : 31.4 kb/s
  68. Count of elements                        : 2662
  69. Stream size                              : 23.6 MiB (1%)
  70. Language                                 : English
  71. Default                                  : No
  72. Forced                                   : No

  73. Text #3
  74. ID                                       : 5
  75. Format                                   : PGS
  76. Muxing mode                              : zlib
  77. Codec ID                                 : S_HDMV/PGS
  78. Codec ID/Info                            : Picture based subtitle format used on BDs/HD-DVDs
  79. Duration                                 : 1 h 43 min
  80. Bit rate                                 : 33.8 kb/s
  81. Count of elements                        : 2305
  82. Stream size                              : 25.0 MiB (1%)
  83. Language                                 : German
  84. Default                                  : No
  85. Forced                                   : No

  86. Text #4
  87. ID                                       : 6
  88. Format                                   : PGS
  89. Muxing mode                              : zlib
  90. Codec ID                                 : S_HDMV/PGS
  91. Codec ID/Info                            : Picture based subtitle format used on BDs/HD-DVDs
  92. Duration                                 : 1 h 45 min
  93. Bit rate                                 : 36.8 kb/s
  94. Count of elements                        : 2613
  95. Stream size                              : 27.7 MiB (1%)
  96. Language                                 : German
  97. Default                                  : No
  98. Forced                                   : No

  99. Menu
  100. 00:00:00.000                             : en:Chapter 01
  101. 00:09:50.590                             : en:Chapter 02
  102. 00:18:44.123                             : en:Chapter 03
  103. 00:26:32.591                             : en:Chapter 04
  104. 00:36:44.202                             : en:Chapter 05
  105. 00:44:11.649                             : en:Chapter 06
  106. 00:52:53.170                             : en:Chapter 07
  107. 01:02:43.760                             : en:Chapter 08
  108. 01:11:58.314                             : en:Chapter 09
  109. 01:20:32.828                             : en:Chapter 10
  110. 01:30:26.421                             : en:Chapter 11
  111. 01:38:50.925                             : en:Chapter 12
复制代码




                                       
                                       

                                       
                                       
                                       




回复

使用道具 举报

懒得打字嘛,点击右侧快捷回复 【右侧内容,后台自定义】
您需要登录后才可以回帖 登录 | 立即加入

本版积分规则

Archiver|小黑屋| 蓝光电影网 |网站地图

Copyright © 2021 Comsenz Inc. Powered by 蓝光电影网

蓝光电影网

本站内容由用户自主分享和转载自互联网,转载目的在于传递更多信息,并不代表本网赞同其观点和对其真实性负责。

如有侵权、违反国家法律政策行为,请联系我们,我们会第一时间及时清除和处理!

举报反馈邮箱:[email protected]

快速回复 返回顶部 返回列表