找回密码

蓝光电影网

查看: 15|回复: 0

[动作] 搜索并摧毁 Search.and.Destroy.2020.1080p.BluRay.x264.DTS-FGT 8.47GB

[复制链接]
蓝光币
382
发表于 2021-5-31 18:53:23 | 显示全部楼层 |阅读模式


◎译  名 搜索并摧毁
◎片  名 Search and Destroy
◎年  代 2020
◎产  地 保加利亚
◎类  别 行动 / 战争
◎语  言 英语
◎上映日期 
◎豆瓣评分 /10 from 0 users
◎豆瓣链接 https://movie.douban.com/subject/35138102/
◎片  长 92分钟
◎导  演 丹尼·伦纳 Danny Lerner
◎主  演 迪兰·布鲁斯 Dylan Bruce
       朱利安·科斯托夫 Julian Kostov
◎标  签 保加利亚 | 2020 | 行动 | 票圈 | 欧洲电影 | 性奴,反转 | 军事
◎简  介


  在与污名昭著的乌克兰军械商伊戈尔·罗丹的战役中,美国突击队员约翰·卡特未能拯救一个被劫持为人质的家庭,落空了他的全部团队,约翰被军队解雇。三年后,当伊戈尔重新露面时,他的宿将军联系他去履行一项私人使命
  1. Video
  2. ID                                       : 1
  3. Format                                   : AVC
  4. Format/Info                              : Advanced Video Codec
  5. Format profile                           : [email protected]
  6. Format settings                          : CABAC / 4 Ref Frames
  7. Format settings, CABAC                   : Yes
  8. Format settings, Reference frames        : 4 frames
  9. Codec ID                                 : V_MPEG4/ISO/AVC
  10. Duration                                 : 1 h 33 min
  11. Bit rate                                 : 11.5 Mb/s
  12. Width                                    : 1 920 pixels
  13. Height                                   : 1 080 pixels
  14. Display aspect ratio                     : 16:9
  15. Frame rate mode                          : Constant
  16. Frame rate                               : 23.976 (24000/1001/189150) FPS
  17. Color space                              : YUV
  18. Chroma subsampling                       : 4:2:0
  19. Bit depth                                : 8 bits
  20. Scan type                                : Progressive
  21. Bits/(Pixel*Frame)                       : 0.231
  22. Stream size                              : 7.49 GiB (88%)
  23. Writing library                          : x264 core 148 r2795M aaa9aa8
  24. Encoding settings                        : cabac=1 / ref=4 / deblock=1:-2:-2 / analyse=0x3:0x113 / me=umh / subme=9 / psy=1 / psy_rd=1.00:0.15 / mixed_ref=1 / me_range=16 / chroma_me=1 / trellis=2 / 8x8dct=1 / cqm=0 / deadzone=21,11 / fast_pskip=1 / chroma_qp_offset=-3 / threads=48 / lookahead_threads=3 / sliced_threads=0 / nr=0 / decimate=1 / interlaced=0 / bluray_compat=0 / constrained_intra=0 / bframes=3 / b_pyramid=2 / b_adapt=1 / b_bias=0 / direct=3 / weightb=1 / open_gop=0 / weightp=2 / keyint=250 / keyint_min=25 / scenecut=40 / intra_refresh=0 / rc_lookahead=50 / rc=2pass / mbtree=1 / bitrate=11500 / ratetol=1.0 / qcomp=0.60 / qpmin=0 / qpmax=69 / qpstep=4 / cplxblur=20.0 / qblur=0.5 / vbv_maxrate=31250 / vbv_bufsize=31250 / nal_hrd=none / filler=0 / ip_ratio=1.40 / aq=1:1.00
  25. Default                                  : Yes
  26. Forced                                   : No
  27. Audio
  28. ID                                       : 2
  29. Format                                   : DTS
  30. Format/Info                              : Digital Theater Systems
  31. Codec ID                                 : A_DTS
  32. Duration                                 : 1 h 33 min
  33. Bit rate mode                            : Constant
  34. Bit rate                                 : 1 509 kb/s
  35. Channel(s)                               : 6 channels
  36. Channel layout                           : C L R Ls Rs LFE
  37. Sampling rate                            : 48.0 kHz
  38. Frame rate                               : 93.750 FPS (512 SPF)
  39. Bit depth                                : 24 bits
  40. Compression mode                         : Lossy
  41. Stream size                              : 1 006 MiB (12%)
  42. Language                                 : English
  43. Default                                  : Yes
  44. Forced                                   : No
  45. Text #1
  46. ID                                       : 3
  47. Format                                   : UTF-8
  48. Codec ID                                 : S_TEXT/UTF8
  49. Codec ID/Info                            : UTF-8 Plain Text
  50. Duration                                 : 23 min 51 s
  51. Bit rate                                 : 3 b/s
  52. Count of elements                        : 14
  53. Stream size                              : 582 Bytes (0%)
  54. Title                                    : FORCED
  55. Language                                 : English
  56. Default                                  : Yes
  57. Forced                                   : No
  58. Text #2
  59. ID                                       : 4
  60. Format                                   : UTF-8
  61. Codec ID                                 : S_TEXT/UTF8
  62. Codec ID/Info                            : UTF-8 Plain Text
  63. Duration                                 : 1 h 31 min
  64. Bit rate                                 : 56 b/s
  65. Count of elements                        : 1142
  66. Stream size                              : 37.7 KiB (0%)
  67. Language                                 : English
  68. Default                                  : No
  69. Forced                                   : No
  70. Menu
  71. 00:00:00.000                             : Chapter 01
  72. 00:08:43.189                             : Chapter 02
  73. 00:16:50.927                             : Chapter 03
  74. 00:27:33.151                             : Chapter 04
  75. 00:38:17.378                             : Chapter 05
  76. 00:48:46.674                             : Chapter 06
  77. 00:59:32.152                             : Chapter 07
  78. 01:09:16.694                             : Chapter 08
  79. 01:21:17.581                             : Chapter 09
复制代码







                                       
                                       

                                       
                                       
                                       




回复

使用道具 举报

懒得打字嘛,点击右侧快捷回复 【右侧内容,后台自定义】
您需要登录后才可以回帖 登录 | 立即加入

本版积分规则

Archiver|小黑屋| 蓝光电影网 |网站地图

Copyright © 2021 Comsenz Inc. Powered by 蓝光电影网

蓝光电影网

本站内容由用户自主分享和转载自互联网,转载目的在于传递更多信息,并不代表本网赞同其观点和对其真实性负责。

如有侵权、违反国家法律政策行为,请联系我们,我们会第一时间及时清除和处理!

举报反馈邮箱:[email protected]

快速回复 返回顶部 返回列表