找回密码

蓝光电影网

查看: 9|回复: 0

[恐怖] 幽灵帝国 The.Phantom.Empire.1988.1080p.BluRay.x264-HANDJOB 5.41GB

[复制链接]
蓝光币
382
发表于 2021-1-24 08:43:40 | 显示全部楼层 |阅读模式
[img][/img]

◎译  名 鬼魂帝国
◎片  名 The Phantom Empire
◎年  代 1989
◎产  地 美国
◎类  别 可骇
◎语  言 英语
◎上映日期 1989-08-17
◎IMDb评分  3.9/10 from 428 users
◎IMDb链接  https://www.imdb.com/title/tt0091752/
◎豆瓣评分 /10 from 0 users
◎豆瓣链接 https://movie.douban.com/subject/1967961/
◎片  长 83 分钟
◎导  演 弗雷德·欧伦·雷 Fred Olen Ray
◎编  剧 弗雷德·欧伦·雷 Fred Olen Ray
◎主  演 杰弗瑞·考姆斯 Jeffrey Combs
       Maggie Martin
       威廉·史姑娘 William Smith
       拉斯·坦布林 Russ Tamblyn
       西碧尔·丹宁 Sybil Danning
       蜜雪儿·鲍尔 Michelle Bauer
       罗斯·哈根 Ross Hagen
       罗伯特·夸里 Robert Quarry
       Robby the Robot
◎标  签 情色 | 1988 | BDISO | 美国电影 | 惊悚
◎简  介


  当一个吃人的洞窟生物出现在他脖子上的未切割钻石的财富时,钱伯斯密斯的女儿丹奈招聘冒险家C&C Salvage找到宝石的地下来历。 陪伴着考古学练习生安德鲁·巴黎,矿物学家斯特罗克教授和C&C的褴褛一切者Cort Eastman和Eddy Colchilde,Denea希望从她着名的父亲的阴影中脱颖而出,阔别了分开洞窟的活力!
  1. Video
  2. ID                                       : 1
  3. Format                                   : AVC
  4. Format/Info                              : Advanced Video Codec
  5. Format profile                           : [email protected]
  6. Format settings                          : CABAC / 4 Ref Frames
  7. Format settings, CABAC                   : Yes
  8. Format settings, Reference frames        : 4 frames
  9. Codec ID                                 : V_MPEG4/ISO/AVC
  10. Duration                                 : 1 h 23 min
  11. Bit rate                                 : 8 846 kb/s
  12. Width                                    : 1 920 pixels
  13. Height                                   : 1 080 pixels
  14. Display aspect ratio                     : 16:9
  15. Frame rate mode                          : Constant
  16. Frame rate                               : 23.976 (24000/1001/189150) FPS
  17. Color space                              : YUV
  18. Chroma subsampling                       : 4:2:0
  19. Bit depth                                : 8 bits
  20. Scan type                                : Progressive
  21. Bits/(Pixel*Frame)                       : 0.178
  22. Stream size                              : 5.17 GiB (96%)
  23. Writing library                          : x264 core 157 r2935 545de2f
  24. Encoding settings                        : cabac=1 / ref=4 / deblock=1:-3:-3 / analyse=0x3:0x133 / me=umh / subme=10 / psy=1 / psy_rd=1.00:0.00 / mixed_ref=1 / me_range=32 / chroma_me=1 / trellis=2 / 8x8dct=1 / cqm=0 / deadzone=21,11 / fast_pskip=0 / chroma_qp_offset=-2 / threads=18 / lookahead_threads=4 / sliced_threads=0 / nr=0 / decimate=0 / interlaced=0 / bluray_compat=0 / constrained_intra=0 / bframes=16 / b_pyramid=2 / b_adapt=2 / b_bias=0 / direct=3 / weightb=1 / open_gop=0 / weightp=1 / keyint=240 / keyint_min=24 / scenecut=40 / intra_refresh=0 / rc_lookahead=60 / rc=crf / mbtree=0 / crf=23.2 / qcomp=0.60 / qpmin=0 / qpmax=69 / qpstep=4 / vbv_maxrate=62500 / vbv_bufsize=78125 / crf_max=0.0 / nal_hrd=none / filler=0 / ip_ratio=1.40 / pb_ratio=1.30 / aq=2:1.00
  25. Default                                  : Yes
  26. Forced                                   : No
  27. Color range                              : Limited
  28. Color primaries                          : BT.709
  29. Transfer characteristics                 : BT.709
  30. Matrix coefficients                      : BT.709
  31. Audio #1
  32. ID                                       : 2
  33. Format                                   : AAC LC
  34. Format/Info                              : Advanced Audio Codec Low Complexity
  35. Codec ID                                 : A_AAC-2
  36. Duration                                 : 1 h 23 min
  37. Bit rate                                 : 320 kb/s
  38. Channel(s)                               : 2 channels
  39. Channel layout                           : L R
  40. Sampling rate                            : 48.0 kHz
  41. Frame rate                               : 46.875 FPS (1024 SPF)
  42. Compression mode                         : Lossy
  43. Delay relative to video                  : 9 ms
  44. Stream size                              : 192 MiB (3%)
  45. Language                                 : English
  46. Default                                  : Yes
  47. Forced                                   : No
  48. Audio #2
  49. ID                                       : 3
  50. Format                                   : AAC LC SBR
  51. Format/Info                              : Advanced Audio Codec Low Complexity with Spectral Band Replication
  52. Commercial name                          : HE-AAC
  53. Format settings                          : Explicit
  54. Codec ID                                 : A_AAC-2
  55. Duration                                 : 1 h 23 min
  56. Bit rate                                 : 80.0 kb/s
  57. Channel(s)                               : 2 channels
  58. Channel layout                           : L R
  59. Sampling rate                            : 48.0 kHz
  60. Frame rate                               : 23.438 FPS (2048 SPF)
  61. Compression mode                         : Lossy
  62. Delay relative to video                  : 31 ms
  63. Stream size                              : 47.9 MiB (1%)
  64. Title                                    : Commentary with Director Fred Olen Ray and Cinematographer Gary Graver
  65. Language                                 : English
  66. Default                                  : No
  67. Forced                                   : No
复制代码



                                       
                                       

                                       
                                       
                                       




回复

使用道具 举报

懒得打字嘛,点击右侧快捷回复 【右侧内容,后台自定义】
您需要登录后才可以回帖 登录 | 立即加入

本版积分规则

Archiver|小黑屋| 蓝光电影网 |网站地图

Copyright © 2021 Comsenz Inc. Powered by 蓝光电影网

蓝光电影网

本站内容由用户自主分享和转载自互联网,转载目的在于传递更多信息,并不代表本网赞同其观点和对其真实性负责。

如有侵权、违反国家法律政策行为,请联系我们,我们会第一时间及时清除和处理!

举报反馈邮箱:[email protected]

快速回复 返回顶部 返回列表