找回密码

蓝光电影网

查看: 8|回复: 0

[喜剧] 桑给巴尔之路/菲洲猎艳记 Road.to.Zanzibar.1941.1080p.BluRay.x264-PSYCHD 9.85GB

[复制链接]
蓝光币
382
发表于 2020-8-16 16:11:17 | 显示全部楼层 |阅读模式


◎译  名 桑给巴尔之路 / 菲洲猎艳记(港)
◎片  名 Road to Zanzibar
◎年  代 1941
◎产  地 美国
◎类  别 笑剧 / 恋爱 / 歌舞 / 冒险
◎语  言 英语
◎上映日期 1941
◎IMDb评分  6.8/10 from 2853 users
◎IMDb链接  https://www.imdb.com/title/tt0034116
◎豆瓣评分 0/10 from 0 users
◎豆瓣链接 https://movie.douban.com/subject/5070030/
◎片  长 91 分钟
◎导  演 Victor Schertzinger
◎编  剧 Don Hartman
◎主  演 平·克劳斯贝 Bing Crosby
       鲍勃·霍普 Bob Hope
       多萝西·拉莫尔 Dorothy Lamour
       尤娜·默克尔 Una Merkel
       埃里克·布洛尔 Eric Blore
       道格拉斯·敦布里勒 Douglass Dumbrille
       艾丽斯·艾德里安 Iris Adrian
       Lionel Royce
       Buck Woods
       Leigh Whipper
       欧内斯特·惠特曼 Ernest Whitman
       诺贝·约翰逊 Noble Johnson
       琼·玛什 Joan Marsh
       Luis Alberni
       Robert Middlemass
       阿尔·布里奇 Al Bridge
       Ken Carpenter
       James B. Carson
       Eddie Conrad
       Charles Gemora
       John George
       Richard Keene
       保罗·波尔卡西 Paul Porcasi
       Georges Renavent
       Henry Roquemore
       Jules Strongbow
       诺玛·威登 Norma Varden

◎标  签 歌舞 | 笑剧 | 美国 | 1941 | US | Bob_Hope | 美國 | triangle
◎简  介

  
  暂无相关剧情先容
  1. Video
  2. ID                                       : 1
  3. Format                                   : AVC
  4. Format/Info                              : Advanced Video Codec
  5. Format profile                           : [email protected]
  6. Format settings                          : CABAC / 5 Ref Frames
  7. Format settings, CABAC                   : Yes
  8. Format settings, Reference frames        : 5 frames
  9. Codec ID                                 : V_MPEG4/ISO/AVC
  10. Duration                                 : 1 h 31 min
  11. Bit rate                                 : 13.9 Mb/s
  12. Width                                    : 1 472 pixels
  13. Height                                   : 1 080 pixels
  14. Display aspect ratio                     : 4:3
  15. Frame rate mode                          : Constant
  16. Frame rate                               : 23.976 (24000/1001/189150) FPS
  17. Color space                              : YUV
  18. Chroma subsampling                       : 4:2:0
  19. Bit depth                                : 8 bits
  20. Scan type                                : Progressive
  21. Bits/(Pixel*Frame)                       : 0.365
  22. Stream size                              : 8.68 GiB (88%)
  23. Writing library                          : x264 core 157 r2970 5493be8
  24. Encoding settings                        : cabac=1 / ref=5 / deblock=1:-3:-3 / analyse=0x3:0x113 / me=umh / subme=8 / psy=1 / psy_rd=1.15:0.00 / mixed_ref=1 / me_range=32 / chroma_me=1 / trellis=2 / 8x8dct=1 / cqm=0 / deadzone=21,11 / fast_pskip=1 / chroma_qp_offset=-2 / threads=34 / lookahead_threads=5 / sliced_threads=0 / nr=0 / decimate=1 / interlaced=0 / bluray_compat=0 / constrained_intra=0 / bframes=3 / b_pyramid=2 / b_adapt=2 / b_bias=0 / direct=3 / weightb=1 / open_gop=0 / weightp=2 / keyint=240 / keyint_min=24 / scenecut=40 / intra_refresh=0 / rc_lookahead=50 / rc=2pass / mbtree=1 / bitrate=13908 / ratetol=1.0 / qcomp=0.60 / qpmin=0 / qpmax=69 / qpstep=4 / cplxblur=20.0 / qblur=0.5 / ip_ratio=1.40 / aq=3:0.70
  25. Default                                  : Yes
  26. Forced                                   : No
  27. Statistics Tags Issue                    : no_variable_data 1970-01-01 00:00:00 / no_variable_data 2010-02-22 21:41:29
  28. FromStats_BitRate                        : 13909114
  29. FromStats_Duration                       : 01:31:21.476000000
  30. FromStats_FrameCount                     : 131424
  31. FromStats_StreamSize                     : 9530309769

  32. Audio
  33. ID                                       : 2
  34. Format                                   : DTS
  35. Format/Info                              : Digital Theater Systems
  36. Codec ID                                 : A_DTS
  37. Duration                                 : 1 h 31 min
  38. Bit rate mode                            : Constant
  39. Bit rate                                 : 1 509 kb/s
  40. Channel(s)                               : 2 channels
  41. Channel layout                           : L R
  42. Sampling rate                            : 48.0 kHz
  43. Frame rate                               : 93.750 FPS (512 SPF)
  44. Bit depth                                : 24 bits
  45. Compression mode                         : Lossy
  46. Stream size                              : 986 MiB (10%)
  47. Language                                 : English
  48. Default                                  : Yes
  49. Forced                                   : No
  50. Statistics Tags Issue                    : no_variable_data 1970-01-01 00:00:00 / no_variable_data 2010-02-22 21:41:29
  51. FromStats_BitRate                        : 1508999
  52. FromStats_Duration                       : 01:31:21.494000000
  53. FromStats_FrameCount                     : 513890
  54. FromStats_StreamSize                     : 1033946680

  55. Text #1
  56. ID                                       : 3
  57. Format                                   : UTF-8
  58. Codec ID                                 : S_TEXT/UTF8
  59. Codec ID/Info                            : UTF-8 Plain Text
  60. Language                                 : English
  61. Default                                  : No
  62. Forced                                   : No
  63. Statistics Tags Issue                    : no_variable_data 1970-01-01 00:00:00 / no_variable_data 2010-02-22 21:41:29
  64. FromStats_BitRate                        : 92
  65. FromStats_Duration                       : 01:29:58.268000000
  66. FromStats_FrameCount                     : 1494
  67. FromStats_StreamSize                     : 62359

  68. Text #2
  69. ID                                       : 4
  70. Format                                   : UTF-8
  71. Codec ID                                 : S_TEXT/UTF8
  72. Codec ID/Info                            : UTF-8 Plain Text
  73. Title                                    : SDH
  74. Language                                 : English
  75. Default                                  : No
  76. Forced                                   : No
  77. Statistics Tags Issue                    : no_variable_data 1970-01-01 00:00:00 / no_variable_data 2010-02-22 21:41:29
  78. FromStats_BitRate                        : 95
  79. FromStats_Duration                       : 01:29:58.268000000
  80. FromStats_FrameCount                     : 1575
  81. FromStats_StreamSize                     : 64676

  82. Menu
  83. 00:00:00.000                             : en:Chapter 01
  84. 00:10:43.895                             : en:Chapter 02
  85. 00:23:06.470                             : en:Chapter 03
  86. 00:36:51.711                             : en:Chapter 04
  87. 00:49:00.522                             : en:Chapter 05
  88. 00:57:16.017                             : en:Chapter 06
  89. 01:10:28.726                             : en:Chapter 07
  90. 01:19:38.066                             : en:Chapter 08
复制代码




                                       
                                       

                                       
                                       
                                       




回复

使用道具 举报

懒得打字嘛,点击右侧快捷回复 【右侧内容,后台自定义】
您需要登录后才可以回帖 登录 | 立即加入

本版积分规则

Archiver|小黑屋| 蓝光电影网 |网站地图

Copyright © 2021 Comsenz Inc. Powered by 蓝光电影网

蓝光电影网

本站内容由用户自主分享和转载自互联网,转载目的在于传递更多信息,并不代表本网赞同其观点和对其真实性负责。

如有侵权、违反国家法律政策行为,请联系我们,我们会第一时间及时清除和处理!

举报反馈邮箱:[email protected]

快速回复 返回顶部 返回列表