找回密码

蓝光电影网

查看: 23|回复: 0

[恐怖] 来玩 Come.Play.2020.1080p.BluRay.x264.DTS-FGT 8.77GB

[复制链接]
蓝光币
426
发表于 2021-1-18 20:28:52 | 显示全部楼层 |阅读模式
[img][/img]

◎译  名 来玩/Larry/怪奇默友(港)/拉里/鬼游戏(台)
◎片  名 Come Play
◎年  代 2020
◎产  地 美国
◎类  别 可骇 / 家庭 / 奇异
◎语  言 英语
◎上映日期 2020-10-30(美国)
◎IMDb评分  5.7/10 from 6055 users
◎IMDb链接  https://www.imdb.com/title/tt8004664/
◎豆瓣评分 6.1/10 from 2567 users
◎豆瓣链接 https://movie.douban.com/subject/30465104/
◎片  长 97分钟
◎导  演 雅各布·蔡斯 Jacob Chase
◎编  剧 雅各布·蔡斯 Jacob Chase
◎主  演 艾奇·罗伯逊 Azhy Robertson
       吉莉安·雅各布斯 Gillian Jacobs
       小约翰·加拉赫 John Gallagher Jr.
       温斯洛·费格雷 Winslow Fegley
       杰登·马林 Jayden Marine
       加文·麦基弗·赖特 Gavin MacIver-Wright
       蕾切尔·威尔森 Rachel Wilson
       阿拉娜·阿什利·马奎斯 Alana-Ashley Marques
       达尔默·阿泽德 Dalmar Abuzeid
       伊斯汗·莫里斯 Ishan Morris
       安娜·阿劳约 Ana Araujo
       埃博妮·布斯 Eboni Booth
◎标  签 可骇 | 惊悚 | 美国 | 怪物 | 2020 | 电影 | 家庭 | 短片改编
◎简  介


  孤独的小男孩Olive(艾奇·罗伯逊 饰),他感觉自己处处异于其他人。他很想要交朋友,因而他花很多时候在手机战争版上。当一个奥秘的生物想要透过Oliver的手机战争板来进入我们的天下,Oliver的怙恃(吉莉安·雅各布斯 Gillia nJacobs、小约翰·加拉赫 John Gallagher Jr. 饰)必须自告奋勇,将儿子从奥秘生物的手中救出。
  1. Video
  2. ID                                       : 1
  3. Format                                   : AVC
  4. Format/Info                              : Advanced Video Codec
  5. Format profile                           : [email protected]
  6. Format settings                          : CABAC / 4 Ref Frames
  7. Format settings, CABAC                   : Yes
  8. Format settings, Reference frames        : 4 frames
  9. Codec ID                                 : V_MPEG4/ISO/AVC
  10. Duration                                 : 1 h 36 min
  11. Bit rate                                 : 11.5 Mb/s
  12. Width                                    : 1 920 pixels
  13. Height                                   : 804 pixels
  14. Display aspect ratio                     : 2.40:1
  15. Frame rate mode                          : Constant
  16. Frame rate                               : 23.976 (24000/1001/189150) FPS
  17. Color space                              : YUV
  18. Chroma subsampling                       : 4:2:0
  19. Bit depth                                : 8 bits
  20. Scan type                                : Progressive
  21. Bits/(Pixel*Frame)                       : 0.311
  22. Stream size                              : 7.75 GiB (88%)
  23. Writing library                          : x264 core 148 r2795M aaa9aa8
  24. Encoding settings                        : cabac=1 / ref=4 / deblock=1:-2:-2 / analyse=0x3:0x113 / me=umh / subme=9 / psy=1 / psy_rd=1.00:0.15 / mixed_ref=1 / me_range=16 / chroma_me=1 / trellis=2 / 8x8dct=1 / cqm=0 / deadzone=21,11 / fast_pskip=1 / chroma_qp_offset=-3 / threads=24 / lookahead_threads=3 / sliced_threads=0 / nr=0 / decimate=1 / interlaced=0 / bluray_compat=0 / constrained_intra=0 / bframes=3 / b_pyramid=2 / b_adapt=1 / b_bias=0 / direct=3 / weightb=1 / open_gop=0 / weightp=2 / keyint=250 / keyint_min=25 / scenecut=40 / intra_refresh=0 / rc_lookahead=50 / rc=2pass / mbtree=1 / bitrate=11500 / ratetol=1.0 / qcomp=0.60 / qpmin=0 / qpmax=69 / qpstep=4 / cplxblur=20.0 / qblur=0.5 / vbv_maxrate=31250 / vbv_bufsize=31250 / nal_hrd=none / filler=0 / ip_ratio=1.40 / aq=1:1.00
  25. Language                                 : English
  26. Default                                  : Yes
  27. Forced                                   : No
  28. Audio
  29. ID                                       : 2
  30. Format                                   : DTS
  31. Format/Info                              : Digital Theater Systems
  32. Codec ID                                 : A_DTS
  33. Duration                                 : 1 h 36 min
  34. Bit rate mode                            : Constant
  35. Bit rate                                 : 1 509 kb/s
  36. Channel(s)                               : 6 channels
  37. Channel layout                           : C L R Ls Rs LFE
  38. Sampling rate                            : 48.0 kHz
  39. Frame rate                               : 93.750 FPS (512 SPF)
  40. Bit depth                                : 24 bits
  41. Compression mode                         : Lossy
  42. Stream size                              : 1.02 GiB (12%)
  43. Title                                    : DTS 5.1
  44. Language                                 : English
  45. Default                                  : Yes
  46. Forced                                   : No
  47. Text
  48. ID                                       : 3
  49. Format                                   : UTF-8
  50. Codec ID                                 : S_TEXT/UTF8
  51. Codec ID/Info                            : UTF-8 Plain Text
  52. Duration                                 : 1 h 31 min
  53. Bit rate                                 : 32 b/s
  54. Count of elements                        : 773
  55. Stream size                              : 21.6 KiB (0%)
  56. Title                                    : English-SRT
  57. Language                                 : English
  58. Default                                  : Yes
  59. Forced                                   : No
  60. Menu
  61. 00:00:00.000                             : en:Chapter 1
  62. 00:03:50.856                             : en:Chapter 2
  63. 00:09:51.007                             : en:Chapter 3
  64. 00:15:32.223                             : en:Chapter 4
  65. 00:18:03.165                             : en:Chapter 5
  66. 00:23:24.403                             : en:Chapter 6
  67. 00:28:58.028                             : en:Chapter 7
  68. 00:37:23.241                             : en:Chapter 8
  69. 00:43:15.843                             : en:Chapter 9
  70. 00:48:22.942                             : en:Chapter 10
  71. 00:50:11.217                             : en:Chapter 11
  72. 00:56:25.507                             : en:Chapter 12
  73. 00:58:37.764                             : en:Chapter 13
  74. 01:02:21.029                             : en:Chapter 14
  75. 01:07:30.171                             : en:Chapter 15
  76. 01:12:48.739                             : en:Chapter 16
  77. 01:20:33.495                             : en:Chapter 17
  78. 01:27:21.445                             : en:Chapter 18
  79. 01:29:42.419                             : en:Chapter 19
  80. 01:32:22.203                             : en:Chapter 20
复制代码



                                       
                                       

                                       
                                       
                                       




回复

使用道具 举报

懒得打字嘛,点击右侧快捷回复 【右侧内容,后台自定义】
您需要登录后才可以回帖 登录 | 立即加入

本版积分规则

Archiver|小黑屋| 蓝光电影网 |网站地图

Copyright © 2021 Comsenz Inc. Powered by 蓝光电影网

蓝光电影网

本站内容由用户自主分享和转载自互联网,转载目的在于传递更多信息,并不代表本网赞同其观点和对其真实性负责。

如有侵权、违反国家法律政策行为,请联系我们,我们会第一时间及时清除和处理!

举报反馈邮箱:[email protected]

快速回复 返回顶部 返回列表