找回密码

蓝光电影网

查看: 30|回复: 0

[恐怖] 来玩 Come.Play.2020.1080p.BluRay.x264.DTS-HD.MA.5.1-FGT 9.95GB

[复制链接]
蓝光币
511
发表于 2021-1-18 20:27:19 | 显示全部楼层 |阅读模式
[img][/img]

◎译  名 来玩/Larry/怪奇默友(港)/拉里/鬼游戏(台)
◎片  名 Come Play
◎年  代 2020
◎产  地 美国
◎类  别 可骇 / 家庭 / 奇异
◎语  言 英语
◎上映日期 2020-10-30(美国)
◎IMDb评分  5.7/10 from 6055 users
◎IMDb链接  https://www.imdb.com/title/tt8004664/
◎豆瓣评分 6.1/10 from 2567 users
◎豆瓣链接 https://movie.douban.com/subject/30465104/
◎片  长 97分钟
◎导  演 雅各布·蔡斯 Jacob Chase
◎编  剧 雅各布·蔡斯 Jacob Chase
◎主  演 艾奇·罗伯逊 Azhy Robertson
       吉莉安·雅各布斯 Gillian Jacobs
       小约翰·加拉赫 John Gallagher Jr.
       温斯洛·费格雷 Winslow Fegley
       杰登·马林 Jayden Marine
       加文·麦基弗·赖特 Gavin MacIver-Wright
       蕾切尔·威尔森 Rachel Wilson
       阿拉娜·阿什利·马奎斯 Alana-Ashley Marques
       达尔默·阿泽德 Dalmar Abuzeid
       伊斯汗·莫里斯 Ishan Morris
       安娜·阿劳约 Ana Araujo
       埃博妮·布斯 Eboni Booth
◎标  签 可骇 | 惊悚 | 美国 | 怪物 | 2020 | 电影 | 家庭 | 短片改编
◎简  介


  孤独的小男孩Olive(艾奇·罗伯逊 饰),他感觉自己处处异于其他人。他很想要交朋友,因而他花很多时候在手机战争版上。当一个奥秘的生物想要透过Oliver的手机战争板来进入我们的天下,Oliver的怙恃(吉莉安·雅各布斯 Gillia nJacobs、小约翰·加拉赫 John Gallagher Jr. 饰)必须自告奋勇,将儿子从奥秘生物的手中救出。
  1. Video
  2. ID                                       : 1
  3. Format                                   : AVC
  4. Format/Info                              : Advanced Video Codec
  5. Format profile                           : [email protected]
  6. Format settings                          : CABAC / 4 Ref Frames
  7. Format settings, CABAC                   : Yes
  8. Format settings, Reference frames        : 4 frames
  9. Codec ID                                 : V_MPEG4/ISO/AVC
  10. Duration                                 : 1 h 36 min
  11. Bit rate                                 : 11.5 Mb/s
  12. Width                                    : 1 920 pixels
  13. Height                                   : 804 pixels
  14. Display aspect ratio                     : 2.40:1
  15. Frame rate mode                          : Constant
  16. Frame rate                               : 23.976 (24000/1001/189150) FPS
  17. Color space                              : YUV
  18. Chroma subsampling                       : 4:2:0
  19. Bit depth                                : 8 bits
  20. Scan type                                : Progressive
  21. Bits/(Pixel*Frame)                       : 0.311
  22. Stream size                              : 7.75 GiB (78%)
  23. Writing library                          : x264 core 148 r2795M aaa9aa8
  24. Encoding settings                        : cabac=1 / ref=4 / deblock=1:-2:-2 / analyse=0x3:0x113 / me=umh / subme=9 / psy=1 / psy_rd=1.00:0.15 / mixed_ref=1 / me_range=16 / chroma_me=1 / trellis=2 / 8x8dct=1 / cqm=0 / deadzone=21,11 / fast_pskip=1 / chroma_qp_offset=-3 / threads=24 / lookahead_threads=3 / sliced_threads=0 / nr=0 / decimate=1 / interlaced=0 / bluray_compat=0 / constrained_intra=0 / bframes=3 / b_pyramid=2 / b_adapt=1 / b_bias=0 / direct=3 / weightb=1 / open_gop=0 / weightp=2 / keyint=250 / keyint_min=25 / scenecut=40 / intra_refresh=0 / rc_lookahead=50 / rc=2pass / mbtree=1 / bitrate=11500 / ratetol=1.0 / qcomp=0.60 / qpmin=0 / qpmax=69 / qpstep=4 / cplxblur=20.0 / qblur=0.5 / vbv_maxrate=31250 / vbv_bufsize=31250 / nal_hrd=none / filler=0 / ip_ratio=1.40 / aq=1:1.00
  25. Language                                 : English
  26. Default                                  : Yes
  27. Forced                                   : No
  28. Audio
  29. ID                                       : 2
  30. Format                                   : DTS XLL
  31. Format/Info                              : Digital Theater Systems
  32. Commercial name                          : DTS-HD Master Audio
  33. Codec ID                                 : A_DTS
  34. Duration                                 : 1 h 36 min
  35. Bit rate mode                            : Variable
  36. Bit rate                                 : 3 241 kb/s
  37. Channel(s)                               : 6 channels
  38. Channel layout                           : C L R Ls Rs LFE
  39. Sampling rate                            : 48.0 kHz
  40. Frame rate                               : 93.750 FPS (512 SPF)
  41. Bit depth                                : 24 bits
  42. Compression mode                         : Lossless
  43. Stream size                              : 2.18 GiB (22%)
  44. Title                                    : DTS-HD MA 5.1
  45. Language                                 : English
  46. Default                                  : Yes
  47. Forced                                   : No
  48. Text #1
  49. ID                                       : 3
  50. Format                                   : UTF-8
  51. Codec ID                                 : S_TEXT/UTF8
  52. Codec ID/Info                            : UTF-8 Plain Text
  53. Duration                                 : 1 h 31 min
  54. Bit rate                                 : 32 b/s
  55. Count of elements                        : 773
  56. Stream size                              : 21.6 KiB (0%)
  57. Title                                    : English-SRT
  58. Language                                 : English
  59. Default                                  : Yes
  60. Forced                                   : No
  61. Text #2
  62. ID                                       : 4
  63. Format                                   : PGS
  64. Muxing mode                              : zlib
  65. Codec ID                                 : S_HDMV/PGS
  66. Codec ID/Info                            : Picture based subtitle format used on BDs/HD-DVDs
  67. Duration                                 : 1 h 31 min
  68. Bit rate                                 : 26.7 kb/s
  69. Count of elements                        : 1956
  70. Stream size                              : 17.5 MiB (0%)
  71. Title                                    : English-PGS
  72. Language                                 : English
  73. Default                                  : No
  74. Forced                                   : No
  75. Text #3
  76. ID                                       : 5
  77. Format                                   : PGS
  78. Muxing mode                              : zlib
  79. Codec ID                                 : S_HDMV/PGS
  80. Codec ID/Info                            : Picture based subtitle format used on BDs/HD-DVDs
  81. Duration                                 : 1 h 35 min
  82. Bit rate                                 : 18.7 kb/s
  83. Count of elements                        : 1520
  84. Stream size                              : 12.8 MiB (0%)
  85. Title                                    : French-PGS
  86. Language                                 : French
  87. Default                                  : No
  88. Forced                                   : No
  89. Text #4
  90. ID                                       : 6
  91. Format                                   : PGS
  92. Muxing mode                              : zlib
  93. Codec ID                                 : S_HDMV/PGS
  94. Codec ID/Info                            : Picture based subtitle format used on BDs/HD-DVDs
  95. Duration                                 : 1 h 35 min
  96. Bit rate                                 : 18.8 kb/s
  97. Count of elements                        : 1522
  98. Stream size                              : 12.9 MiB (0%)
  99. Title                                    : Spanish-PGS
  100. Language                                 : Spanish
  101. Default                                  : No
  102. Forced                                   : No
  103. Menu
  104. 00:00:00.000                             : en:Chapter 1
  105. 00:03:50.856                             : en:Chapter 2
  106. 00:09:51.007                             : en:Chapter 3
  107. 00:15:32.223                             : en:Chapter 4
  108. 00:18:03.165                             : en:Chapter 5
  109. 00:23:24.403                             : en:Chapter 6
  110. 00:28:58.028                             : en:Chapter 7
  111. 00:37:23.241                             : en:Chapter 8
  112. 00:43:15.843                             : en:Chapter 9
  113. 00:48:22.942                             : en:Chapter 10
  114. 00:50:11.217                             : en:Chapter 11
  115. 00:56:25.507                             : en:Chapter 12
  116. 00:58:37.764                             : en:Chapter 13
  117. 01:02:21.029                             : en:Chapter 14
  118. 01:07:30.171                             : en:Chapter 15
  119. 01:12:48.739                             : en:Chapter 16
  120. 01:20:33.495                             : en:Chapter 17
  121. 01:27:21.445                             : en:Chapter 18
  122. 01:29:42.419                             : en:Chapter 19
  123. 01:32:22.203                             : en:Chapter 20
复制代码



                                       
                                       

                                       
                                       
                                       




回复

使用道具 举报

懒得打字嘛,点击右侧快捷回复 【右侧内容,后台自定义】
您需要登录后才可以回帖 登录 | 立即加入

本版积分规则

Archiver|小黑屋| 蓝光电影网 |网站地图

Copyright © 2021 Comsenz Inc. Powered by 蓝光电影网

蓝光电影网

本站内容由用户自主分享和转载自互联网,转载目的在于传递更多信息,并不代表本网赞同其观点和对其真实性负责。

如有侵权、违反国家法律政策行为,请联系我们,我们会第一时间及时清除和处理!

举报反馈邮箱:[email protected]

快速回复 返回顶部 返回列表