找回密码

蓝光电影网

查看: 65|回复: 1

[恐怖] 恐怖之夜:噩梦电台 A.Night.Of.Horror.Nightmare.Radio.2019.1080p.BluRay.x264-GETiT 4.18GB

[复制链接]
蓝光币
382
发表于 2021-1-12 09:12:33 | 显示全部楼层 |阅读模式
[img][/img]

◎译  名 可骇之夜:噩梦电台/nightmare radio/噩梦电台/恐惧之夜:噩梦广播(台)
◎片  名 A Night of Horror: Nightmare Radio
◎年  代 2019
◎产  地 阿根廷,新西兰,英国
◎类  别 可骇
◎语  言 英语
◎上映日期 2019-10-25(英国)
◎IMDb评分  5.1/10 from 1366 users
◎IMDb链接  https://www.imdb.com/title/tt10756374/
◎豆瓣评分 5.9/10 from 2336 users
◎豆瓣链接 https://movie.douban.com/subject/33459814/
◎片  长 100分钟
◎导  演 奥利弗·帕克 Oliver Park / 路西安诺·欧纳提 Luciano Onetti
◎主  演 Ian Costello
       Michelle Costello
       克拉拉·科瓦西奇 Clara Kovacic
       Kera O'Bryon
       James Wright
       米歇尔·卡斯特罗 Michelle Costello
◎标  签 可骇 | 惊悚 | 可骇片 | 可骇惊悚悬疑重口血腥 | 分段式 | 新西兰 | 2019 | 新西兰电影
◎简  介


  可骇之夜:噩梦电台是新西兰黑曼达拉电影公司建造的一部新的可骇全集。
  
  罗德主持一个专门会商可骇的广播节目。直到忽然,播音员起头收到一个拼命求救的孩子的希奇电话。开初,他以为这是一个坏笑话,直到他发现究竟并非如此。这些电话隐藏着一个黑暗的奥秘...
  1. Video
  2. ID                                       : 1
  3. Format                                   : AVC
  4. Format/Info                              : Advanced Video Codec
  5. Format profile                           : [email protected]
  6. Format settings                          : CABAC / 5 Ref Frames
  7. Format settings, CABAC                   : Yes
  8. Format settings, Reference frames        : 5 frames
  9. Codec ID                                 : V_MPEG4/ISO/AVC
  10. Duration                                 : 1 h 44 min
  11. Bit rate                                 : 4 147 kb/s
  12. Width                                    : 1 920 pixels
  13. Height                                   : 804 pixels
  14. Display aspect ratio                     : 2.40:1
  15. Frame rate mode                          : Constant
  16. Frame rate                               : 24.000 FPS
  17. Color space                              : YUV
  18. Chroma subsampling                       : 4:2:0
  19. Bit depth                                : 8 bits
  20. Scan type                                : Progressive
  21. Bits/(Pixel*Frame)                       : 0.112
  22. Stream size                              : 3.03 GiB (73%)
  23. Writing library                          : x264 core 161 r3018 db0d417
  24. Encoding settings                        : cabac=1 / ref=5 / deblock=1:-3:-3 / analyse=0x3:0x133 / me=umh / subme=9 / psy=1 / psy_rd=1.00:0.00 / mixed_ref=1 / me_range=16 / chroma_me=1 / trellis=2 / 8x8dct=1 / cqm=0 / deadzone=21,11 / fast_pskip=1 / chroma_qp_offset=-2 / threads=12 / lookahead_threads=1 / sliced_threads=0 / nr=0 / decimate=1 / interlaced=0 / bluray_compat=0 / constrained_intra=0 / bframes=3 / b_pyramid=2 / b_adapt=2 / b_bias=0 / direct=3 / weightb=1 / open_gop=0 / weightp=2 / keyint=250 / keyint_min=24 / scenecut=40 / intra_refresh=0 / rc_lookahead=60 / rc=crf / mbtree=1 / crf=17.0 / qcomp=0.60 / qpmin=0 / qpmax=69 / qpstep=4 / ip_ratio=1.40 / aq=3:0.80
  25. Language                                 : English
  26. Default                                  : Yes
  27. Forced                                   : No
  28. Color range                              : Limited
  29. Matrix coefficients                      : BT.709

  30. Audio
  31. ID                                       : 2
  32. Format                                   : DTS XLL
  33. Format/Info                              : Digital Theater Systems
  34. Commercial name                          : DTS-HD Master Audio
  35. Codec ID                                 : A_DTS
  36. Duration                                 : 1 h 44 min
  37. Bit rate mode                            : Variable
  38. Bit rate                                 : 1 560 kb/s
  39. Channel(s)                               : 2 channels
  40. Channel layout                           : L R
  41. Sampling rate                            : 48.0 kHz
  42. Frame rate                               : 93.750 FPS (512 SPF)
  43. Bit depth                                : 16 bits
  44. Compression mode                         : Lossless
  45. Stream size                              : 1.14 GiB (27%)
  46. Title                                    : dtshd
  47. Language                                 : English
  48. Default                                  : Yes
  49. Forced                                   : No

  50. Text
  51. ID                                       : 3
  52. Format                                   : PGS
  53. Muxing mode                              : zlib
  54. Codec ID                                 : S_HDMV/PGS
  55. Codec ID/Info                            : Picture based subtitle format used on BDs/HD-DVDs
  56. Duration                                 : 1 h 32 min
  57. Bit rate                                 : 11.9 kb/s
  58. Count of elements                        : 1244
  59. Stream size                              : 7.92 MiB (0%)
  60. Title                                    : subs
  61. Language                                 : German
  62. Default                                  : No
  63. Forced                                   : No

  64. Menu
  65. 00:00:00.000                             : en:00:00:00.000
  66. 00:04:25.625                             : en:00:04:25.625
  67. 00:16:09.000                             : en:00:16:09.000
  68. 00:28:22.500                             : en:00:28:22.500
  69. 00:42:10.000                             : en:00:42:10.000
  70. 00:56:36.000                             : en:00:56:36.000
  71. 01:04:02.542                             : en:01:04:02.542
  72. 01:15:15.000                             : en:01:15:15.000
  73. 01:30:08.000                             : en:01:30:08.000
  74. 01:33:14.625                             : en:01:33:14.625
复制代码



                                       
                                       

                                       
                                       
                                       




回复

使用道具 举报

蓝光币
27
发表于 2021-9-6 20:44:55 | 显示全部楼层
蓝光电影网好厉害什么片都能找到
回复 支持 反对

使用道具 举报

懒得打字嘛,点击右侧快捷回复 【右侧内容,后台自定义】
您需要登录后才可以回帖 登录 | 立即加入

本版积分规则

Archiver|小黑屋| 蓝光电影网 |网站地图

Copyright © 2021 Comsenz Inc. Powered by 蓝光电影网

蓝光电影网

本站内容由用户自主分享和转载自互联网,转载目的在于传递更多信息,并不代表本网赞同其观点和对其真实性负责。

如有侵权、违反国家法律政策行为,请联系我们,我们会第一时间及时清除和处理!

举报反馈邮箱:[email protected]

快速回复 返回顶部 返回列表