找回密码

蓝光电影网

查看: 32|回复: 0

[动作] 悲情丽塔 Blue.Rita.1977.GERMAN.1080p.BluRay.x264.DD5.1-NOGRP 8.27GB

[复制链接]
蓝光币
386
发表于 2021-5-27 09:07:39 | 显示全部楼层 |阅读模式
[img][/img]

◎译  名 悲情丽塔/Blue Rita/Le Cabaret des filles perverses
◎片  名 Das Frauenhaus
◎年  代 1977
◎产  地 瑞士,法国
◎类  别 行动 / 惊悚 / 犯罪
◎语  言 德语
◎上映日期 1977-07-08
◎豆瓣评分 5.1/10 from 94 users
◎豆瓣链接 https://movie.douban.com/subject/1963453/
◎片  长 Germany: 75 分钟
◎导  演 赫苏斯·佛朗哥 Jesus Franco
◎编  剧 赫苏斯·佛朗哥 Jesus Franco
◎主  演 奥利维尔·马修 Olivier Mathot
       居伊·德洛姆 Guy Delorme
       帕梅拉·史丹佛 Pamela Stanford
◎标  签 情色 | 瑞士 | 1970s | 德国 | 欧洲电影 | 法国 | 1977 | 西班牙
◎简  介


  余娜除了治理一个附带妓院的风行夜总会外,她还为几个犯罪构造和情报局工作。在一次严刑鞭挞后,余娜酿成了性冷感,她试图注射药物入下体来规复性欲。她憎恨汉子,对于落入她手里的政客, 特务或其他人,她和她的女同性恋性仆从都绝不包涵地看待。
  1. Video
  2. ID                                       : 1
  3. Format                                   : AVC
  4. Format/Info                              : Advanced Video Codec
  5. Format profile                           : [email protected]
  6. Format settings                          : CABAC / 4 Ref Frames
  7. Format settings, CABAC                   : Yes
  8. Format settings, Reference frames        : 4 frames
  9. Codec ID                                 : V_MPEG4/ISO/AVC
  10. Duration                                 : 1 h 18 min
  11. Bit rate                                 : 13.8 Mb/s
  12. Width                                    : 1 900 pixels
  13. Height                                   : 1 040 pixels
  14. Display aspect ratio                     : 1.85:1
  15. Frame rate mode                          : Constant
  16. Frame rate                               : 24.000 FPS
  17. Color space                              : YUV
  18. Chroma subsampling                       : 4:2:0
  19. Bit depth                                : 8 bits
  20. Scan type                                : Progressive
  21. Bits/(Pixel*Frame)                       : 0.291
  22. Stream size                              : 7.56 GiB (91%)
  23. Writing library                          : x264 core 157 r2935 545de2f
  24. Encoding settings                        : cabac=1 / ref=4 / deblock=1:-3:-3 / analyse=0x3:0x133 / me=umh / subme=10 / psy=1 / psy_rd=1.00:0.00 / mixed_ref=1 / me_range=32 / chroma_me=1 / trellis=2 / 8x8dct=1 / cqm=0 / deadzone=21,11 / fast_pskip=0 / chroma_qp_offset=-2 / threads=18 / lookahead_threads=4 / sliced_threads=0 / nr=0 / decimate=0 / interlaced=0 / bluray_compat=0 / constrained_intra=0 / bframes=16 / b_pyramid=2 / b_adapt=2 / b_bias=0 / direct=3 / weightb=1 / open_gop=0 / weightp=2 / keyint=240 / keyint_min=24 / scenecut=40 / intra_refresh=0 / rc_lookahead=60 / rc=crf / mbtree=0 / crf=19.0 / qcomp=0.60 / qpmin=0 / qpmax=69 / qpstep=4 / vbv_maxrate=62500 / vbv_bufsize=78125 / crf_max=0.0 / nal_hrd=none / filler=0 / ip_ratio=1.40 / pb_ratio=1.30 / aq=2:1.00
  25. Default                                  : Yes
  26. Forced                                   : No
  27. Color range                              : Limited
  28. Color primaries                          : BT.709
  29. Transfer characteristics                 : BT.709
  30. Matrix coefficients                      : BT.709
  31. Audio #1
  32. ID                                       : 2
  33. Format                                   : AC-3
  34. Format/Info                              : Audio Coding 3
  35. Commercial name                          : Dolby Digital
  36. Codec ID                                 : A_AC3
  37. Duration                                 : 1 h 18 min
  38. Bit rate mode                            : Constant
  39. Bit rate                                 : 640 kb/s
  40. Channel(s)                               : 6 channels
  41. Channel layout                           : L R C LFE Ls Rs
  42. Sampling rate                            : 48.0 kHz
  43. Frame rate                               : 31.250 FPS (1536 SPF)
  44. Compression mode                         : Lossy
  45. Stream size                              : 359 MiB (4%)
  46. Language                                 : German
  47. Service kind                             : Complete Main
  48. Default                                  : Yes
  49. Forced                                   : No
  50. Audio #2
  51. ID                                       : 3
  52. Format                                   : AC-3
  53. Format/Info                              : Audio Coding 3
  54. Commercial name                          : Dolby Digital
  55. Codec ID                                 : A_AC3
  56. Duration                                 : 1 h 18 min
  57. Bit rate mode                            : Constant
  58. Bit rate                                 : 640 kb/s
  59. Channel(s)                               : 6 channels
  60. Channel layout                           : L R C LFE Ls Rs
  61. Sampling rate                            : 48.0 kHz
  62. Frame rate                               : 31.250 FPS (1536 SPF)
  63. Compression mode                         : Lossy
  64. Stream size                              : 359 MiB (4%)
  65. Language                                 : English
  66. Service kind                             : Complete Main
  67. Default                                  : No
  68. Forced                                   : No
  69. Text #1
  70. ID                                       : 4
  71. Format                                   : UTF-8
  72. Codec ID                                 : S_TEXT/UTF8
  73. Codec ID/Info                            : UTF-8 Plain Text
  74. Duration                                 : 1 h 17 min
  75. Bit rate                                 : 28 b/s
  76. Count of elements                        : 405
  77. Stream size                              : 16.3 KiB (0%)
  78. Title                                    : SRT
  79. Language                                 : English
  80. Default                                  : Yes
  81. Forced                                   : No
  82. Text #2
  83. ID                                       : 5
  84. Format                                   : PGS
  85. Muxing mode                              : zlib
  86. Codec ID                                 : S_HDMV/PGS
  87. Codec ID/Info                            : Picture based subtitle format used on BDs/HD-DVDs
  88. Duration                                 : 1 h 17 min
  89. Bit rate                                 : 19.4 kb/s
  90. Count of elements                        : 814
  91. Stream size                              : 10.7 MiB (0%)
  92. Language                                 : English
  93. Default                                  : No
  94. Forced                                   : No
  95. Menu
  96. 00:00:00.000                             : :Chapter 1
  97. 00:10:57.167                             : :Chapter 2
  98. 00:16:55.375                             : :Chapter 3
  99. 00:22:06.250                             : :Chapter 4
  100. 00:27:54.458                             : :Chapter 5
  101. 00:35:02.375                             : :Chapter 6
  102. 00:41:23.375                             : :Chapter 7
  103. 00:50:34.625                             : :Chapter 8
  104. 00:56:39.500                             : :Chapter 9
  105. 01:00:01.708                             : :Chapter 10
  106. 01:04:59.458                             : :Chapter 11
  107. 01:12:06.167                             : :Chapter 12
复制代码




                                       
                                       

                                       
                                       
                                       




回复

使用道具 举报

懒得打字嘛,点击右侧快捷回复 【右侧内容,后台自定义】
您需要登录后才可以回帖 登录 | 立即加入

本版积分规则

Archiver|小黑屋| 蓝光电影网 |网站地图

Copyright © 2021 Comsenz Inc. Powered by 蓝光电影网

蓝光电影网

本站内容由用户自主分享和转载自互联网,转载目的在于传递更多信息,并不代表本网赞同其观点和对其真实性负责。

如有侵权、违反国家法律政策行为,请联系我们,我们会第一时间及时清除和处理!

举报反馈邮箱:[email protected]

快速回复 返回顶部 返回列表