找回密码

蓝光电影网

查看: 32|回复: 0

[科幻] 凶煞鱼怪/异种大海怪 Humanoids.From.The.Deep.1980.1080p.BluRay.x264.DD2.0-FGT 6.56GB

[复制链接]
蓝光币
426
发表于 2020-12-2 09:43:24 | 显示全部楼层 |阅读模式


◎译  名 凶煞鱼怪/异种大海怪
◎片  名 Humanoids from the Deep
◎年  代 1980
◎产  地 美国
◎类  别 科幻 / 可骇
◎语  言 英语
◎上映日期 1980-07-03
◎IMDb评分  5.7/10 from 7686 users
◎IMDb链接  https://www.imdb.com/title/tt0080904/
◎豆瓣评分 5.9/10 from 478 users
◎豆瓣链接 https://movie.douban.com/subject/2070451/
◎片  长 80 分钟
◎导  演 吉米·村上 Jimmy T. Murakami
◎主  演 安·托克尔 Ann Turkel
       Vincent Prentice
       Meegan King
       罗伯·博汀 Rob Bottin
       维克·莫罗 Vic Morrow
       Anthony Pena
       Hoke Howell
       道格·麦克洛 Doug McClure
       Lynn Theel
◎标  签 可骇 | 凶煞鱼怪 | 怪物 | 美国 | 情色 | cult | 美国电影 | 可骇片
◎简  介


  一种基因突变的田鸡成为了威胁人类保存的致命怪物,它们以人类女性为方针抓获后为其滋生后代,由于其种群的不竭扩大,人们决议和这群变异怪物停止一场不共戴天的战役。
  1. Video
  2. ID                                       : 1
  3. Format                                   : AVC
  4. Format/Info                              : Advanced Video Codec
  5. Format profile                           : [email protected]
  6. Format settings, CABAC                   : Yes
  7. Format settings, ReFrames                : 4 frames
  8. Codec ID                                 : V_MPEG4/ISO/AVC
  9. Duration                                 : 1h 19mn
  10. Bit rate                                 : 11.1 Mbps
  11. Width                                    : 1 920 pixels
  12. Height                                   : 1 080 pixels
  13. Display aspect ratio                     : 16:9
  14. Frame rate mode                          : Constant
  15. Frame rate                               : 23.976 fps
  16. Color space                              : YUV
  17. Chroma subsampling                       : 4:2:0
  18. Bit depth                                : 8 bits
  19. Scan type                                : Progressive
  20. Bits/(Pixel*Frame)                       : 0.224
  21. Stream size                              : 6.07 GiB (93%)
  22. Writing library                          : x264 core 104 r1677 19df41a
  23. Encoding settings                        : cabac=1 / ref=4 / deblock=1:0:0 / analyse=0x3:0x133 / me=umh / subme=7 / psy=1 / psy_rd=1.00:0.15 / mixed_ref=1 / me_range=16 / chroma_me=1 / trellis=1 / 8x8dct=1 / cqm=0 / deadzone=21,11 / fast_pskip=0 / chroma_qp_offset=-3 / threads=12 / sliced_threads=0 / nr=0 / decimate=0 / interlaced=0 / constrained_intra=0 / bframes=3 / b_pyramid=2 / b_adapt=1 / b_bias=0 / direct=1 / weightb=1 / open_gop=0 / weightp=2 / keyint=250 / keyint_min=23 / scenecut=40 / intra_refresh=0 / rc_lookahead=40 / rc=2pass / mbtree=1 / bitrate=11137 / ratetol=1.0 / qcomp=0.60 / qpmin=10 / qpmax=51 / qpstep=4 / cplxblur=20.0 / qblur=0.5 / ip_ratio=1.40 / aq=2:1.00
  24. Language                                 : English
  25. Default                                  : Yes
  26. Forced                                   : No
  27. Audio
  28. ID                                       : 2
  29. Format                                   : AC-3
  30. Format/Info                              : Audio Coding 3
  31. Mode extension                           : CM (complete main)
  32. Format settings, Endianness              : Big
  33. Codec ID                                 : A_AC3
  34. Duration                                 : 1h 19mn
  35. Bit rate mode                            : Constant
  36. Bit rate                                 : 640 Kbps
  37. Channel(s)                               : 2 channels
  38. Channel positions                        : Front: L R
  39. Sampling rate                            : 48.0 KHz
  40. Compression mode                         : Lossy
  41. Stream size                              : 365 MiB (5%)
  42. Language                                 : English
  43. Default                                  : Yes
  44. Forced                                   : No
复制代码






                                       
                                       

                                       
                                       
                                       




回复

使用道具 举报

懒得打字嘛,点击右侧快捷回复 【右侧内容,后台自定义】
您需要登录后才可以回帖 登录 | 立即加入

本版积分规则

Archiver|小黑屋| 蓝光电影网 |网站地图

Copyright © 2021 Comsenz Inc. Powered by 蓝光电影网

蓝光电影网

本站内容由用户自主分享和转载自互联网,转载目的在于传递更多信息,并不代表本网赞同其观点和对其真实性负责。

如有侵权、违反国家法律政策行为,请联系我们,我们会第一时间及时清除和处理!

举报反馈邮箱:[email protected]

快速回复 返回顶部 返回列表