找回密码

蓝光电影网

查看: 28|回复: 0

[恐怖] 魔鸟/乌鸦 The.Raven.1935.1080p.BluRay.x264-GUACAMOLE 4.63GB

[复制链接]
蓝光币
519
发表于 2020-12-30 23:12:00 | 显示全部楼层 |阅读模式
[img][/img]

◎译  名 魔鸟/乌鸦
◎片  名 The Raven
◎年  代 1935
◎产  地 美国
◎类  别 可骇
◎语  言 英语
◎上映日期 1935-07-08(美国)
◎IMDb评分  7/10 from 4670 users
◎IMDb链接  https://www.imdb.com/title/tt0026912/
◎豆瓣评分 /10 from 0 users
◎豆瓣链接 https://movie.douban.com/subject/2264882/
◎片  长 61 分钟
◎导  演 卢·兰德斯 Lew Landers
◎编  剧 埃德加·爱伦·坡  Edgar Allan Poe / 大卫·贝姆 David Boehm / Florence Enright / 盖伊·艾杜尔 Guy Endore / 多尔·沙里 Dore Schary / Clarence Marks / 吉姆·塔利 Jim Tully
◎主  演 伊内兹·考特尼 Inez Courtney
       巴德·奥斯博内 Bud Osborne
       Maidel Turner
       Cyril Thornton
       伊安·沃尔夫 Ian Wolfe
       Irene Ware
       海伦·韦尔 Helen Ware
       Mary Wallace
       贝拉·卢戈西 Bela Lugosi
       Walter Miller
       莱斯特·马修斯 Lester Matthews
       斯潘塞·查特斯 Spencer Charters
       Anne Darling
       Al Ferguson
       波利斯·卡洛夫 Boris Karloff
       Joe Haworth
       亚瑟·霍伊特 Arthur Hoyt
       June Gittelson
       萨缪尔·S·辛兹 Samuel S. Hinds
       乔纳森·哈勒 Jonathan Hale
◎标  签 美国 | 爱伦·坡 | 可骇 | 1935 | Horror | EdgarAllanPoe | 美国电影 | Boris_Karloff
◎简  介


  A brilliant surgeon obsessed with Edgar Allan Poe saves the life of a beautiful dancer and goes mad when he can't have her.
  1. Video
  2. ID                                       : 1
  3. Format                                   : AVC
  4. Format/Info                              : Advanced Video Codec
  5. Format profile                           : [email protected]
  6. Format settings                          : CABAC / 4 Ref Frames
  7. Format settings, CABAC                   : Yes
  8. Format settings, Reference frames        : 4 frames
  9. Codec ID                                 : V_MPEG4/ISO/AVC
  10. Duration                                 : 1 h 1 min
  11. Bit rate                                 : 10.6 Mb/s
  12. Width                                    : 1 480 pixels
  13. Height                                   : 1 080 pixels
  14. Display aspect ratio                     : 1.370
  15. Frame rate mode                          : Constant
  16. Frame rate                               : 23.976 (24000/1001/189150) FPS
  17. Color space                              : YUV
  18. Chroma subsampling                       : 4:2:0
  19. Bit depth                                : 8 bits
  20. Scan type                                : Progressive
  21. Bits/(Pixel*Frame)                       : 0.277
  22. Stream size                              : 4.54 GiB (98%)
  23. Writing library                          : x264 core 161 r3027 4121277
  24. Encoding settings                        : cabac=1 / ref=4 / deblock=1:-3:-3 / analyse=0x3:0x133 / me=umh / subme=9 / psy=1 / psy_rd=1.00:0.00 / mixed_ref=1 / me_range=16 / chroma_me=1 / trellis=2 / 8x8dct=1 / cqm=0 / deadzone=21,11 / fast_pskip=0 / chroma_qp_offset=-2 / threads=24 / lookahead_threads=2 / sliced_threads=0 / nr=0 / decimate=1 / interlaced=0 / bluray_compat=0 / constrained_intra=0 / bframes=3 / b_pyramid=2 / b_adapt=2 / b_bias=0 / direct=3 / weightb=1 / open_gop=0 / weightp=2 / keyint=250 / keyint_min=23 / scenecut=40 / intra_refresh=0 / rc_lookahead=60 / rc=crf / mbtree=1 / crf=20.0 / qcomp=0.60 / qpmin=0 / qpmax=69 / qpstep=4 / ip_ratio=1.40 / aq=3:0.60
  25. Default                                  : Yes
  26. Forced                                   : No
  27. Color range                              : Limited
  28. Color primaries                          : BT.709
  29. Transfer characteristics                 : BT.709
  30. Matrix coefficients                      : BT.709

  31. Audio
  32. ID                                       : 2
  33. Format                                   : FLAC
  34. Format/Info                              : Free Lossless Audio Codec
  35. Codec ID                                 : A_FLAC
  36. Duration                                 : 1 h 1 min
  37. Bit rate mode                            : Variable
  38. Bit rate                                 : 214 kb/s
  39. Channel(s)                               : 2 channels
  40. Channel layout                           : L R
  41. Sampling rate                            : 48.0 kHz
  42. Frame rate                               : 11.719 FPS (4096 SPF)
  43. Bit depth                                : 16 bits
  44. Compression mode                         : Lossless
  45. Stream size                              : 93.9 MiB (2%)
  46. Writing library                          : libFLAC 1.2.1 (UTC 2007-09-17)
  47. Language                                 : English
  48. Default                                  : Yes
  49. Forced                                   : No

  50. Menu
  51. 00:00:00.000                             : en:00:00:00.000
  52. 00:09:54.594                             : en:00:09:54.594
  53. 00:12:39.759                             : en:00:12:39.759
  54. 00:16:27.987                             : en:00:16:27.987
  55. 00:26:57.616                             : en:00:26:57.616
  56. 00:29:11.750                             : en:00:29:11.750
  57. 00:37:05.223                             : en:00:37:05.223
  58. 00:42:38.556                             : en:00:42:38.556
  59. 00:46:05.763                             : en:00:46:05.763
  60. 00:49:03.941                             : en:00:49:03.941
  61. 00:53:18.195                             : en:00:53:18.195
  62. 00:56:49.406                             : en:00:56:49.406
复制代码



                                       
                                       

                                       
                                       
                                       




回复

使用道具 举报

懒得打字嘛,点击右侧快捷回复 【右侧内容,后台自定义】
您需要登录后才可以回帖 登录 | 立即加入

本版积分规则

Archiver|小黑屋| 蓝光电影网 |网站地图

Copyright © 2021 Comsenz Inc. Powered by 蓝光电影网

蓝光电影网

本站内容由用户自主分享和转载自互联网,转载目的在于传递更多信息,并不代表本网赞同其观点和对其真实性负责。

如有侵权、违反国家法律政策行为,请联系我们,我们会第一时间及时清除和处理!

举报反馈邮箱:[email protected]

快速回复 返回顶部 返回列表