找回密码

蓝光电影网

查看: 17|回复: 0

[惊悚] 致命女郎/蛇蝎美人 Fatale.2020.720p.BluRay.x264.DTS-MT 5.24GB

[复制链接]
蓝光币
386
发表于 2021-2-21 14:38:26 | 显示全部楼层 |阅读模式


◎译  名 致命女郎/蛇蝎美人
◎片  名 Fatale
◎年  代 2020
◎产  地 美国
◎类  别 惊悚
◎语  言 英语
◎上映日期 2020-12-18(美国)
◎IMDb评分  5.2/10 from 2888 users
◎IMDb链接  https://www.imdb.com/title/tt8829830/
◎豆瓣评分 5.2/10 from 232 users
◎豆瓣链接 https://movie.douban.com/subject/30382374/
◎片  长 102分钟
◎导  演 德翁·泰勒 Deon Taylor
◎编  剧 戴维·朗格利 David Loughery
◎主  演 希拉里·斯万克 Hilary Swank
       迈克尔·伊雷 Michael Ealy
       迈克·柯尔特 Mike Colter
       卡莉·霍克 Kali Hawk
       丹尼·皮诺 Danny Pino
       达马里斯·刘易斯 Damaris Lewis
       萨姆·戴利 Sam Daly
       杰弗里·欧文斯 Geoffrey Owens
       大卫·霍夫林 David Hoflin
       奥克莉·布尔 Oakley Bull
       达拉斯·钱德勒 Dallas Chandler
       泰里恩·特纳 Tyrin Turner
       朱莉安娜·唐纳德 Juliana Donald
       莱克萨·格鲁克 Lexa Gluck
       丹尼丝·道丝 Denise Dowse
       凯瑞·威斯特科特 Kerry Westcott
       Ian Stanley
       Sasha Golberg
◎标  签 悬疑 | 美国 | 犯罪 | 惊悚 | 2020 | 剧情 | 电影 | Netflix
◎简  介


  影片报告一个成功的体育掮客人达伦(迈克尔·伊雷饰),当他被卷入由一个身份存疑、不知耻辱但行为果断的侦察(希拉里·斯万克饰)带领的警方观察中,他原本的完善生活渐渐消失……
  1. Video
  2. ID                                       : 1
  3. Format                                   : AVC
  4. Format/Info                              : Advanced Video Codec
  5. Format profile                           : [email protected]
  6. Format settings                          : CABAC / 12 Ref Frames
  7. Format settings, CABAC                   : Yes
  8. Format settings, Reference frames        : 12 frames
  9. Codec ID                                 : V_MPEG4/ISO/AVC
  10. Duration                                 : 1 h 42 min
  11. Bit rate                                 : 5 796 kb/s
  12. Width                                    : 1 280 pixels
  13. Height                                   : 536 pixels
  14. Display aspect ratio                     : 2.40:1
  15. Frame rate mode                          : Constant
  16. Frame rate                               : 23.976 (24000/1001/189150) FPS
  17. Color space                              : YUV
  18. Chroma subsampling                       : 4:2:0
  19. Bit depth                                : 8 bits
  20. Scan type                                : Progressive
  21. Bits/(Pixel*Frame)                       : 0.352
  22. Stream size                              : 4.15 GiB (79%)
  23. Writing library                          : x264 core 157 r2938 2b00a84 [email protected] Mod
  24. Encoding settings                        : cabac=1 / ref=12 / deblock=1:-3:-3 / analyse=0x3:0x133 / me=umh / subme=10 / psy=1 / psy_rd=1.05:0.00 / mixed_ref=1 / me_range=32 / chroma_me=1 / trellis=2 / 8x8dct=1 / cqm=0 / deadzone=21,11 / fast_pskip=0 / chroma_qp_offset=-2 / threads=12 / lookahead_threads=2 / sliced_threads=0 / nr=0 / decimate=0 / interlaced=0 / bluray_compat=0 / constrained_intra=0 / bframes=8 / b_pyramid=2 / b_adapt=2 / b_bias=0 / direct=3 / weightb=1 / open_gop=0 / weightp=2 / keyint=250 / keyint_min=24 / scenecut=40 / intra_refresh=0 / rc_lookahead=250 / rc=crf / mbtree=0 / crf=16.8 / qcomp=0.60 / qpmin=0 / qpmax=69 / qpstep=4 / vbv_maxrate=62500 / vbv_bufsize=78125 / crf_max=0.0 / nal_hrd=none / filler=0 / ip_ratio=1.30 / pb_ratio=1.20 / aq=3:0.80
  25. Language                                 : English
  26. Default                                  : Yes
  27. Forced                                   : No
  28. Color range                              : Limited
  29. Color primaries                          : BT.709
  30. Matrix coefficients                      : BT.709
  31. Audio
  32. ID                                       : 2
  33. Format                                   : DTS
  34. Format/Info                              : Digital Theater Systems
  35. Codec ID                                 : A_DTS
  36. Duration                                 : 1 h 42 min
  37. Bit rate mode                            : Constant
  38. Bit rate                                 : 1 509 kb/s
  39. Channel(s)                               : 6 channels
  40. Channel layout                           : C L R Ls Rs LFE
  41. Sampling rate                            : 48.0 kHz
  42. Frame rate                               : 93.750 FPS (512 SPF)
  43. Bit depth                                : 24 bits
  44. Compression mode                         : Lossy
  45. Stream size                              : 1.08 GiB (21%)
  46. Language                                 : English
  47. Default                                  : Yes
  48. Forced                                   : No
  49. Text
  50. ID                                       : 3
  51. Format                                   : UTF-8
  52. Codec ID                                 : S_TEXT/UTF8
  53. Codec ID/Info                            : UTF-8 Plain Text
  54. Duration                                 : 1 h 37 min
  55. Bit rate                                 : 45 b/s
  56. Count of elements                        : 1064
  57. Stream size                              : 32.8 KiB (0%)
  58. Title                                    : SRT
  59. Language                                 : English
  60. Default                                  : Yes
  61. Forced                                   : No
  62. Menu
  63. 00:00:00.000                             : en:Chapter 01
  64. 00:05:29.746                             : en:Chapter 02
  65. 00:12:49.268                             : en:Chapter 03
  66. 00:16:23.733                             : en:Chapter 04
  67. 00:20:46.787                             : en:Chapter 05
  68. 00:29:03.659                             : en:Chapter 06
  69. 00:32:24.609                             : en:Chapter 07
  70. 00:35:07.605                             : en:Chapter 08
  71. 00:40:48.529                             : en:Chapter 09
  72. 00:45:42.114                             : en:Chapter 10
  73. 00:50:24.730                             : en:Chapter 11
  74. 00:57:51.802                             : en:Chapter 12
  75. 01:04:54.224                             : en:Chapter 13
  76. 01:12:38.020                             : en:Chapter 14
  77. 01:21:35.599                             : en:Chapter 15
  78. 01:29:41.626                             : en:Chapter 16
复制代码






                                       
                                       

                                       
                                       
                                       




回复

使用道具 举报

懒得打字嘛,点击右侧快捷回复 【右侧内容,后台自定义】
您需要登录后才可以回帖 登录 | 立即加入

本版积分规则

Archiver|小黑屋| 蓝光电影网 |网站地图

Copyright © 2021 Comsenz Inc. Powered by 蓝光电影网

蓝光电影网

本站内容由用户自主分享和转载自互联网,转载目的在于传递更多信息,并不代表本网赞同其观点和对其真实性负责。

如有侵权、违反国家法律政策行为,请联系我们,我们会第一时间及时清除和处理!

举报反馈邮箱:[email protected]

快速回复 返回顶部 返回列表