找回密码

蓝光电影网

查看: 6|回复: 0

[喜剧] 杀死冈瑟/这个杀手必须死 Killing.Gunther.2017.1080p.BluRay.x264.DTS-CHD 8.86GB

[复制链接]
蓝光币
382
发表于 2020-8-20 09:32:42 | 显示全部楼层 |阅读模式
◎译  名 杀死冈瑟 / 这个杀手必须死(台) / 我们为什么杀冈瑟 / 为什么我们要杀死冈瑟 / Why We're Killing Gunther
◎片  名 杀死冈瑟 Killing Gunther
◎年  代 2017
◎国  家 美国
◎类  别 笑剧 / 行动
◎语  言 英语
◎上映日期 2017-09-22(美国)
◎IMDb评分  4.8/10 from 11,208 users
◎IMDb链接  http://www.imdb.com/title/tt5689068/
◎豆瓣评分 5.7/10 from  users
◎豆瓣链接 https://movie.douban.com/subject/26786106/
◎片  长 93分钟
◎导  演 塔兰·基拉姆
◎主  演 阿诺·施瓦辛格
      寇碧·史莫德斯
      汉娜·西蒙尼
      塔兰·基拉姆
      艾莉森·托尔曼
      鲍比·莫尼汉
      艾伦·余
      斯蒂夫·巴西奇
      亚历克斯·丹肯
      史葛·麦克尼尔
      彼特·科拉米斯
      瑞安·高卢
      丽贝卡·奥尔森
      阿米尔·塔莱
      陶妮·韦斯特
      乔尔·拉贝尔
      保罗·布里顿
◎简  介

 
  阿诺·施瓦辛格将出演笑剧片《我们为什么杀冈瑟》(Why We're Killing Gunther,暂译)。塔兰·基拉姆(《周六夜现场》)自编自导自演。施瓦辛格饰演“全球头号杀手”冈瑟,而来自天下各地的杀手精英则筹算炮制完善计划将其干掉。影片将于6月开机,同时本片也将在行将开幕的戛纳电影节上停止推介。
  1. Video
  2. ID                                       : 1
  3. Format                                   : AVC
  4. Format/Info                              : Advanced Video Codec
  5. Format profile                           : [email protected]
  6. Format settings                          : CABAC / 4 Ref Frames
  7. Format settings, CABAC                   : Yes
  8. Format settings, ReFrames                : 4 frames
  9. Codec ID                                 : V_MPEG4/ISO/AVC
  10. Duration                                 : 1 h 33 min
  11. Bit rate                                 : 12.1 Mb/s
  12. Width                                    : 1 920 pixels
  13. Height                                   : 1 036 pixels
  14. Display aspect ratio                     : 1.85:1
  15. Frame rate mode                          : Constant
  16. Frame rate                               : 23.976 (24000/1001/189150) FPS
  17. Color space                              : YUV
  18. Chroma subsampling                       : 4:2:0
  19. Bit depth                                : 8 bits
  20. Scan type                                : Progressive
  21. Bits/(Pixel*Frame)                       : 0.253
  22. Stream size                              : 7.88 GiB (89%)
  23. Writing library                          : x264 core 149 r2771+45 509cceb 7mod [[email protected] X86_64]
  24. Encoding settings                        : cabac=1 / ref=4 / deblock=1:-3:-3 / analyse=0x3:0x113 / me=umh / subme=10 / psy=1 / fade_compensate=0.00 / psy_rd=0.90:0.10 / mixed_ref=1 / me_range=48 / chroma_me=1 / trellis=2 / 8x8dct=1 / cqm=0 / deadzone=21,11 / fast_pskip=0 / chroma_qp_offset=-2 / threads=12 / lookahead_threads=2 / sliced_threads=0 / nr=0 / decimate=1 / interlaced=0 / bluray_compat=0 / constrained_intra=0 / fgo=0 / bframes=8 / b_pyramid=2 / b_adapt=2 / b_bias=0 / direct=3 / weightb=1 / open_gop=0 / weightp=2 / keyint=250 / keyint_min=23 / scenecut=40 / intra_refresh=0 / rc_lookahead=40 / rc=crf / mbtree=0 / crf=21.0000 / qcomp=0.70 / qpmin=0:0:0 / qpmax=69:69:69 / qpstep=4 / vbv_maxrate=35000 / vbv_bufsize=35000 / crf_max=0.0 / nal_hrd=none / filler=0 / ip_ratio=1.40 / pb_ratio=1.30 / aq=3:1.00 / aq-sensitivity=10.00 / aq-factor=1.00:1.00:1.00 / aq2=0 / aq3=2:[0.50:0.50]:[0.50:0.50]:[0.50:0.50]:[0.50:0.50] / aq3-sensitivity=10.00 / aq3-factor=[1.00:1.00]:[1.00:1.00]:[1.00:1.00] / aq3-boundary=192:64:24
  25. Language                                 : English
  26. Default                                  : Yes
  27. Forced                                   : No
  28. Color range                              : Limited
  29. Matrix coefficients                      : BT.709
  30. Audio
  31. ID                                       : 2
  32. Format                                   : DTS
  33. Format/Info                              : Digital Theater Systems
  34. Codec ID                                 : A_DTS
  35. Duration                                 : 1 h 33 min
  36. Bit rate mode                            : Constant
  37. Bit rate                                 : 1 509 kb/s
  38. Channel(s)                               : 6 channels
  39. Channel positions                        : Front: L C R, Side: L R, LFE
  40. Sampling rate                            : 48.0 kHz
  41. Frame rate                               : 93.750 FPS (512 SPF)
  42. Bit depth                                : 24 bits
  43. Compression mode                         : Lossy
  44. Stream size                              : 1 009 MiB (11%)
  45. Language                                 : English
  46. Default                                  : Yes
  47. Forced                                   : No
复制代码








                                       
                                       

                                       
                                       
                                       




回复

使用道具 举报

懒得打字嘛,点击右侧快捷回复 【右侧内容,后台自定义】
您需要登录后才可以回帖 登录 | 立即加入

本版积分规则

Archiver|小黑屋| 蓝光电影网 |网站地图

Copyright © 2021 Comsenz Inc. Powered by 蓝光电影网

蓝光电影网

本站内容由用户自主分享和转载自互联网,转载目的在于传递更多信息,并不代表本网赞同其观点和对其真实性负责。

如有侵权、违反国家法律政策行为,请联系我们,我们会第一时间及时清除和处理!

举报反馈邮箱:[email protected]

快速回复 返回顶部 返回列表