找回密码

蓝光电影网

查看: 9|回复: 0

[喜剧] 恋爱回旋 Mix.2017.720p.BluRay.x264-REGRET 5.47GB

[复制链接]
蓝光币
382
发表于 2019-9-28 09:47:05 | 显示全部楼层 |阅读模式


◎译  名 恋爱盘旋 / Mix! / Mixed Doubles / 乒乓少女大逆袭(台) / 乒乓情人梦(港) / 混双 / 夹杂双打
◎片  名 ミックス。
◎年  代 2017
◎产  地 日本
◎类  别 笑剧 / 活动
◎语  言 日语
◎上映日期 2017-10-21(日本) / 2018-03-09(中国大陆)
◎IMDb评分  6.6/10 from 593 users
◎IMDb链接  http://www.imdb.com/title/tt6523440
◎豆瓣评分 7.0/10 from 67758 users
◎豆瓣链接 https://movie.douban.com/subject/26972275/
◎片  长 119分钟
◎导  演 石川淳一 Jun'ichi Ishikawa
◎编  剧 古泽良太 Ryota Kosawa
◎主  演 新垣结衣 Yui Aragaki
       瑛太 Eita
       广末凉子 Ryoko Hirosue
       苍井优 Yu Aoi
       濑户康史 Koji Seto
       永野芽郁 Mei Nagano
       山口纱弥加 Sayaka Yamaguchi
       佐野勇斗 Sano Hayato
       远藤宪一 Ken'ichi End?
       森崎博之 Hiroyuki Morisaki
       吉田钢太郎 K?tar? Yoshida
       久间田琳加 Rinka Kumada
       生濑胜久 Katsuhisa Namase
       铃木福 Fuku Suzuki
       谷花音 Tani Kanon
       真木阳子 Yoko Maki
       小日向文世 Fumiyo Kohinata
       中村安奈 Anne Nakamura
       水谷隼 Jun Mizutani
       石川佳纯 Kasumi Ishikawa
       伊藤美诚 Mima Ito
       木造勇人 Y?to Kizukuri
       吉村真晴 Maharu Yoshimura
       浜本由惟 Yui Hamamoto

◎标  签 日本 | 恋爱 | 励志 | 笑剧 | 乒乓球 | 活动 | 2018 | 2017
◎简  介  
  富田多满子(新垣结衣 饰)的母亲是一位非常优异的乒乓球运带动,在母亲的严厉教导下,多满子的全部童年都在天赋乒乓球少女的荣光之下度过。但是,多满子却并不是至心爱好这项活动,因而,母亲过世后,她便完全放飞了自我,就此阔别了球桌。
  随着时候的推移,多满子普通的长大成为了一位OL,而且碰见了名为江岛晃彦(濑户康史 饰)的男人,两人走到了一路。但是,美梦是长久的,圈外人的出现让多满子和江岛之间的爱情画上了句号,与此同时,多满子辞掉了工作,灰头土脸的返回故乡,在那边,母亲留下的经营不善的乒乓球俱乐部期待着她的接手。
◎获奖情况  
  第41届日本电影学院奖(2018)
  最好女配角(提名) 新垣结衣
  第5届豆瓣电影年度榜单(2018)
  评分最高的日本电影(提名)
  1. Video
  2. ID                                       : 1
  3. Format                                   : AVC
  4. Format/Info                              : Advanced Video Codec
  5. Format profile                           : [email protected]
  6. Format settings                          : CABAC / 5 Ref Frames
  7. Format settings, CABAC                   : Yes
  8. Format settings, Reference frames        : 5 frames
  9. Codec ID                                 : V_MPEG4/ISO/AVC
  10. Duration                                 : 1 h 54 min
  11. Bit rate                                 : 5 335 kb/s
  12. Width                                    : 1 280 pixels
  13. Height                                   : 720 pixels
  14. Display aspect ratio                     : 16:9
  15. Frame rate mode                          : Constant
  16. Frame rate                               : 25.000 FPS
  17. Color space                              : YUV
  18. Chroma subsampling                       : 4:2:0
  19. Bit depth                                : 8 bits
  20. Scan type                                : Progressive
  21. Bits/(Pixel*Frame)                       : 0.232
  22. Stream size                              : 4.26 GiB (78%)
  23. Writing library                          : x264 core 157 r2970 5493be8
  24. Encoding settings                        : cabac=1 / ref=5 / deblock=1:-3:-3 / analyse=0x3:0x133 / me=umh / subme=9 / psy=1 / psy_rd=1.00:0.00 / mixed_ref=1 / me_range=16 / chroma_me=1 / trellis=2 / 8x8dct=1 / cqm=0 / deadzone=21,11 / fast_pskip=0 / chroma_qp_offset=-2 / threads=22 / lookahead_threads=1 / sliced_threads=0 / nr=0 / decimate=1 / interlaced=0 / bluray_compat=0 / constrained_intra=0 / bframes=3 / b_pyramid=2 / b_adapt=1 / b_bias=0 / direct=3 / weightb=1 / open_gop=0 / weightp=2 / keyint=250 / keyint_min=25 / scenecut=40 / intra_refresh=0 / rc_lookahead=50 / rc=2pass / mbtree=1 / bitrate=5335 / ratetol=1.0 / qcomp=0.60 / qpmin=0 / qpmax=69 / qpstep=4 / cplxblur=20.0 / qblur=0.5 / ip_ratio=1.40 / aq=1:1.00
  25. Language                                 : English
  26. Default                                  : Yes
  27. Forced                                   : No

  28. Audio
  29. ID                                       : 2
  30. Format                                   : DTS
  31. Format/Info                              : Digital Theater Systems
  32. Codec ID                                 : A_DTS
  33. Duration                                 : 1 h 54 min
  34. Bit rate mode                            : Constant
  35. Bit rate                                 : 1 509 kb/s
  36. Channel(s)                               : 6 channels
  37. Channel layout                           : C L R Ls Rs LFE
  38. Sampling rate                            : 48.0 kHz
  39. Frame rate                               : 93.750 FPS (512 SPF)
  40. Bit depth                                : 24 bits
  41. Compression mode                         : Lossy
  42. Stream size                              : 1.20 GiB (22%)
  43. Language                                 : Japanese
  44. Default                                  : Yes
  45. Forced                                   : No

  46. Text
  47. ID                                       : 3
  48. Format                                   : UTF-8
  49. Codec ID                                 : S_TEXT/UTF8
  50. Codec ID/Info                            : UTF-8 Plain Text
  51. Duration                                 : 1 h 49 min
  52. Bit rate                                 : 34 b/s
  53. Count of elements                        : 1103
  54. Stream size                              : 27.7 KiB (0%)
  55. Title                                    : English
  56. Language                                 : English
  57. Default                                  : Yes
  58. Forced                                   : Yes

  59. Menu
  60. 00:00:00.000                             : en:00:00:00.000
  61. 00:08:14.360                             : en:00:08:14.360
  62. 00:19:14.200                             : en:00:19:14.200
  63. 00:28:41.480                             : en:00:28:41.480
  64. 00:38:59.200                             : en:00:38:59.200
  65. 00:47:25.240                             : en:00:47:25.240
  66. 00:57:50.160                             : en:00:57:50.160
  67. 01:06:21.640                             : en:01:06:21.640
  68. 01:15:58.960                             : en:01:15:58.960
  69. 01:28:22.560                             : en:01:28:22.560
  70. 01:34:57.680                             : en:01:34:57.680
  71. 01:47:17.640                             : en:01:47:17.640
复制代码




                                       
                                       

                                       
                                       
                                       




回复

使用道具 举报

懒得打字嘛,点击右侧快捷回复 【右侧内容,后台自定义】
您需要登录后才可以回帖 登录 | 立即加入

本版积分规则

Archiver|小黑屋| 蓝光电影网 |网站地图

Copyright © 2021 Comsenz Inc. Powered by 蓝光电影网

蓝光电影网

本站内容由用户自主分享和转载自互联网,转载目的在于传递更多信息,并不代表本网赞同其观点和对其真实性负责。

如有侵权、违反国家法律政策行为,请联系我们,我们会第一时间及时清除和处理!

举报反馈邮箱:[email protected]

快速回复 返回顶部 返回列表