找回密码

蓝光电影网

查看: 3|回复: 0

[喜剧] 玩具总动员4/反斗奇兵4 Toy.Story.4.2019.720p.BluRay.x264-SPARKS 3.30GB

[复制链接]
蓝光币
382
发表于 2019-9-26 11:00:20 | 显示全部楼层 |阅读模式


◎译  名 玩具总带动4 / 反斗奇兵4(港)
◎片  名 Toy Story 4
◎年  代 2019
◎产  地 美国
◎类  别 笑剧 / 动画 / 奇异
◎语  言 英语
◎上映日期 2019-06-21(美国/中国大陆)
◎IMDb评分  8.1/10 from 89180 users
◎IMDb链接  http://www.imdb.com/title/tt1979376
◎豆瓣评分 8.8/10 from 116747 users
◎豆瓣链接 https://movie.douban.com/subject/6850547/
◎片  长 100分钟
◎导  演 乔什·库雷 Josh Cooley
◎编  剧 约翰·拉塞特 John Lasseter / 安德鲁·斯坦顿 Andrew Stanton / 彼特·道格特 Pete Docter / 李·昂克里奇 Lee Unkrich / 威尔·麦克马克 Will McCormack / 史黛芬妮·福尔松 Stephany Folsom / C·S·安德森 C.S. Anderson
◎主  演 汤姆·汉克斯 Tom Hanks
       蒂姆·艾伦 Tim Allen
       安妮·波茨 Annie Potts
       托尼·海尔 Tony Hale
       科甘-迈克尔·凯 Keegan-Michael Key
       玛德琳·麦格劳 Madeleine McGraw
       克里斯蒂娜·亨德里克斯 Christina Hendricks
       乔丹·皮尔 Jordan Peele
       基努·里维斯 Keanu Reeves
       松村艾丽 Ally Maki
       杰伊·埃尔南德斯 Jay Hernandez
       罗里·艾伦 Lori Alan
       琼·库萨克 Joan Cusack
       邦尼·亨特 Bonnie Hunt
       克里斯汀·沙尔 Kristen Schaal
       华莱士·肖恩 Wallace Shawn
       约翰·拉岑贝格 John Ratzenberger
       布莱克·克拉克 Blake Clark
       琼·斯奎布 June Squibb
       卡尔·韦瑟斯 Carl Weathers
       唐·里克斯 Don Rickles
       杰夫·格尔林 Jeff Garlin
       朱莉安娜·汉森 Juliana Hansen
       爱丝黛儿·哈里斯 Estelle Harris
       劳里·梅特卡夫 Laurie Metcalf
       史蒂夫·波赛尔 Steve Purcell
       梅尔·布鲁克斯 Mel Brooks
       艾伦·欧朋海默 Alan Oppenheimer
       卡罗尔·博内特 Carol Burnett
       贝蒂·怀特 Betty White
       卡尔·雷纳 Carl Reiner
       比尔·哈德尔 Bill Hader
       帕特丽夏·阿奎特 Patricia Arquette
       提摩西·道尔顿 Timothy Dalton
       弗利 Flea
       梅丽莎·维拉斯诺 Melissa Villase?or
       杰夫·皮金 Jeff Pidgeon
       约翰·莫里斯 John Morris

◎标  签 皮克斯 | 动画 | 迪士尼 | 温情 | 美国 | 童年 | 2019 | 长大
◎简  介  
  胡迪深知自己在这个天下上的使命,就是照顾他的仆人,不管是本来的安迪还是新仆人邦妮。当邦妮将不情愿成为玩具的“叉叉”带回家时,胡迪又担起了教导叉叉接管自己新身份的义务。 但是当邦妮将一切玩具带上房车家庭观光时,胡迪与伙伴们将配合踏上全新的冒险之旅,明白房间里面的天下有多广漠,甚至偶遇老朋友牧羊女。在多年的单独闯荡中,牧羊女已经变得酷爱冒险,不再只是一个精美的洋娃娃。正当胡迪和牧羊女发现相互对玩具的使命的意义截然不同时,他们很称心识到更大的威胁行将到来……
  1. Video
  2. ID                                       : 1
  3. Format                                   : AVC
  4. Format/Info                              : Advanced Video Codec
  5. Format profile                           : [email protected]
  6. Format settings                          : CABAC / 10 Ref Frames
  7. Format settings, CABAC                   : Yes
  8. Format settings, Reference frames        : 10 frames
  9. Codec ID                                 : V_MPEG4/ISO/AVC
  10. Duration                                 : 1 h 40 min
  11. Bit rate                                 : 3 178 kb/s
  12. Width                                    : 1 280 pixels
  13. Height                                   : 536 pixels
  14. Display aspect ratio                     : 2.40:1
  15. Frame rate mode                          : Constant
  16. Frame rate                               : 23.976 FPS
  17. Color space                              : YUV
  18. Chroma subsampling                       : 4:2:0
  19. Bit depth                                : 8 bits
  20. Scan type                                : Progressive
  21. Bits/(Pixel*Frame)                       : 0.193
  22. Stream size                              : 2.22 GiB (68%)
  23. Writing library                          : x264 core 158 r2984 3759fcb
  24. Encoding settings                        : cabac=1 / ref=10 / deblock=1:1:1 / analyse=0x3:0x113 / me=umh / subme=8 / psy=1 / psy_rd=0.40:0.00 / mixed_ref=1 / me_range=16 / chroma_me=1 / trellis=1 / 8x8dct=1 / cqm=0 / deadzone=21,11 / fast_pskip=1 / chroma_qp_offset=-2 / threads=17 / lookahead_threads=2 / sliced_threads=0 / nr=0 / decimate=1 / interlaced=0 / bluray_compat=0 / constrained_intra=0 / bframes=5 / b_pyramid=2 / b_adapt=1 / b_bias=0 / direct=3 / weightb=1 / open_gop=0 / weightp=2 / keyint=250 / keyint_min=23 / scenecut=40 / intra_refresh=0 / rc_lookahead=50 / rc=2pass / mbtree=1 / bitrate=3178 / ratetol=1.0 / qcomp=0.60 / qpmin=0 / qpmax=69 / qpstep=4 / cplxblur=20.0 / qblur=0.5 / ip_ratio=1.40 / aq=1:0.60
  25. Language                                 : English
  26. Default                                  : Yes
  27. Forced                                   : No

  28. Audio
  29. ID                                       : 2
  30. Format                                   : DTS
  31. Format/Info                              : Digital Theater Systems
  32. Codec ID                                 : A_DTS
  33. Duration                                 : 1 h 40 min
  34. Bit rate mode                            : Constant
  35. Bit rate                                 : 1 509 kb/s
  36. Channel(s)                               : 6 channels
  37. Channel layout                           : C L R Ls Rs LFE
  38. Sampling rate                            : 48.0 kHz
  39. Frame rate                               : 93.750 FPS (512 SPF)
  40. Bit depth                                : 24 bits
  41. Compression mode                         : Lossy
  42. Stream size                              : 1.05 GiB (32%)
  43. Language                                 : English
  44. Default                                  : Yes
  45. Forced                                   : No

  46. Menu
  47. 00:00:00.000                             : en:00:00:00.000
  48. 00:05:39.798                             : en:00:05:39.798
  49. 00:11:21.097                             : en:00:11:21.097
  50. 00:15:06.239                             : en:00:15:06.239
  51. 00:19:01.140                             : en:00:19:01.140
  52. 00:20:52.042                             : en:00:20:52.042
  53. 00:22:43.821                             : en:00:22:43.821
  54. 00:26:11.111                             : en:00:26:11.111
  55. 00:27:47.082                             : en:00:27:47.082
  56. 00:32:11.846                             : en:00:32:11.846
  57. 00:36:17.425                             : en:00:36:17.425
  58. 00:40:34.640                             : en:00:40:34.640
  59. 00:42:56.699                             : en:00:42:56.699
  60. 00:44:26.872                             : en:00:44:26.872
  61. 00:46:39.380                             : en:00:46:39.380
  62. 00:48:06.175                             : en:00:48:06.175
  63. 00:49:18.664                             : en:00:49:18.664
  64. 00:52:25.809                             : en:00:52:25.809
  65. 00:53:58.568                             : en:00:53:58.568
  66. 00:54:34.479                             : en:00:54:34.479
  67. 00:59:06.960                             : en:00:59:06.960
  68. 01:01:30.645                             : en:01:01:30.645
  69. 01:04:40.752                             : en:01:04:40.752
  70. 01:07:25.249                             : en:01:07:25.249
  71. 01:09:31.042                             : en:01:09:31.042
  72. 01:10:54.834                             : en:01:10:54.834
  73. 01:12:05.154                             : en:01:12:05.154
  74. 01:15:03.040                             : en:01:15:03.040
  75. 01:17:29.770                             : en:01:17:29.770
  76. 01:18:04.846                             : en:01:18:04.846
  77. 01:19:21.840                             : en:01:19:21.840
  78. 01:19:48.116                             : en:01:19:48.116
  79. 01:22:24.940                             : en:01:22:24.940
  80. 01:29:00.293                             : en:01:29:00.293
复制代码




                                       
                                       

                                       
                                       
                                       




回复

使用道具 举报

懒得打字嘛,点击右侧快捷回复 【右侧内容,后台自定义】
您需要登录后才可以回帖 登录 | 立即加入

本版积分规则

Archiver|小黑屋| 蓝光电影网 |网站地图

Copyright © 2021 Comsenz Inc. Powered by 蓝光电影网

蓝光电影网

本站内容由用户自主分享和转载自互联网,转载目的在于传递更多信息,并不代表本网赞同其观点和对其真实性负责。

如有侵权、违反国家法律政策行为,请联系我们,我们会第一时间及时清除和处理!

举报反馈邮箱:[email protected]

快速回复 返回顶部 返回列表