找回密码

蓝光电影网

查看: 9|回复: 0

[喜剧] 新欢乐满堂/亲戚麦计较 Yours.Mine.and.Ours.2005.1080p.BluRay.X264-PSYCHD 6.56GB

[复制链接]
蓝光币
426
发表于 2020-8-20 08:29:34 | 显示全部楼层 |阅读模式
◎译  名 新欢乐合座 / 亲戚麦计较(台)
◎片  名 新欢乐合座 Yours, Mine And Ours
◎年  代 2005
◎国  家 美国
◎类  别 笑剧 / 恋爱 / 家庭
◎语  言 英语
◎上映日期 2005-11-23
◎IMDb评分  5.5/10 from 26,304 users
◎IMDb链接  http://www.imdb.com/title/tt0443295/
◎豆瓣评分 7.0/10 from  users
◎豆瓣链接 https://movie.douban.com/subject/1485962/
◎片  长 90 分钟 / 88 分钟(剪辑版)
◎导  演 拉加·高斯内尔
◎主  演 丹尼斯·奎德
      蕾妮·罗素
      肖恩·法瑞斯
      卡蒂嘉·佩维斯
      Dean Collins
      泰勒·帕特里克·琼斯
      哈莉·拉姆
      Brecken Palmer
      Bridger Palmer
      泰·帕尼茨
      丹妮尔·帕娜贝克
      德雷克·贝尔
      石川美纪
      斯莱德·皮尔斯
      Little JJ
◎简  介

 
  妻子忽然离世的消息让弗兰克(丹尼斯·奎德 Dennis Quaid 饰)堕入了哀痛的情感中没法自拔,可现实容不得他的沉溺,由于妻子带走了他的幸运和欢畅,留下的却是八个古灵精怪的孩子。为了照顾这些孩子,弗兰克可谓绞尽了脑汁,事已至此他才发现,想要驯服一个孩子,可远比在军队中对自己的部属发号出令要复杂和困难的多。
丧妻之痛随着时候的流逝渐渐化为了淡薄的记忆,海伦(蕾妮·罗素 Rene Russo 饰)的出现让弗兰克重新找到了恋爱的感受。海伦是一个带着十个孩子的单身母亲,她和弗兰克的连系意味着他们行将配合抚养十八本性情悬殊年龄各不不异的熊孩子!而对于孩子们来说,他们的好戏起头了。
  1. Video
  2. ID                                       : 1
  3. Format                                   : AVC
  4. Format/Info                              : Advanced Video Codec
  5. Format profile                           : [email protected]
  6. Format settings                          : CABAC / 5 Ref Frames
  7. Format settings, CABAC                   : Yes
  8. Format settings, Reference frames        : 5 frames
  9. Codec ID                                 : V_MPEG4/ISO/AVC
  10. Duration                                 : 1 h 28 min
  11. Bit rate                                 : 9 149 kb/s
  12. Width                                    : 1 920 pixels
  13. Height                                   : 816 pixels
  14. Display aspect ratio                     : 2.35:1
  15. Frame rate mode                          : Constant
  16. Frame rate                               : 23.976 (24000/1001/189150) FPS
  17. Color space                              : YUV
  18. Chroma subsampling                       : 4:2:0
  19. Bit depth                                : 8 bits
  20. Scan type                                : Progressive
  21. Bits/(Pixel*Frame)                       : 0.244
  22. Stream size                              : 5.63 GiB (86%)
  23. Writing library                          : x264 core 148 r2692 64f4e24
  24. Encoding settings                        : cabac=1 / ref=5 / deblock=1:-3:-3 / analyse=0x3:0x113 / me=umh / subme=8 / psy=1 / psy_rd=1.10:0.00 / mixed_ref=1 / me_range=16 / chroma_me=1 / trellis=1 / 8x8dct=1 / cqm=0 / deadzone=21,11 / fast_pskip=0 / chroma_qp_offset=-2 / threads=12 / lookahead_threads=2 / sliced_threads=0 / nr=0 / decimate=1 / interlaced=0 / bluray_compat=0 / constrained_intra=0 / bframes=3 / b_pyramid=2 / b_adapt=2 / b_bias=0 / direct=3 / weightb=1 / open_gop=0 / weightp=2 / keyint=240 / keyint_min=24 / scenecut=40 / intra_refresh=0 / rc_lookahead=50 / rc=2pass / mbtree=1 / bitrate=9149 / ratetol=1.0 / qcomp=0.60 / qpmin=0 / qpmax=69 / qpstep=4 / cplxblur=20.0 / qblur=0.5 / ip_ratio=1.40 / aq=3:0.80
  25. Language                                 : English
  26. Default                                  : Yes
  27. Forced                                   : No

  28. Audio
  29. ID                                       : 2
  30. Format                                   : DTS
  31. Format/Info                              : Digital Theater Systems
  32. Codec ID                                 : A_DTS
  33. Duration                                 : 1 h 28 min
  34. Bit rate mode                            : Constant
  35. Bit rate                                 : 1 509 kb/s
  36. Channel(s)                               : 6 channels
  37. Channel layout                           : C L R Ls Rs LFE
  38. Sampling rate                            : 48.0 kHz
  39. Frame rate                               : 93.750 FPS (512 SPF)
  40. Bit depth                                : 24 bits
  41. Compression mode                         : Lossy
  42. Stream size                              : 951 MiB (14%)
  43. Language                                 : English
  44. Default                                  : Yes
  45. Forced                                   : No

  46. Menu
  47. 00:00:00.000                             : en:00:00:00.000
  48. 00:06:30.390                             : en:00:06:30.390
  49. 00:14:14.854                             : en:00:14:14.854
  50. 00:19:23.162                             : en:00:19:23.162
  51. 00:24:01.440                             : en:00:24:01.440
  52. 00:33:31.009                             : en:00:33:31.009
  53. 00:45:52.750                             : en:00:45:52.750
  54. 00:57:15.432                             : en:00:57:15.432
  55. 01:02:41.758                             : en:01:02:41.758
  56. 01:12:40.356                             : en:01:12:40.356
  57. 01:18:26.702                             : en:01:18:26.702
  58. 01:21:29.885                             : en:01:21:29.885
复制代码








                                       
                                       

                                       
                                       
                                       




回复

使用道具 举报

懒得打字嘛,点击右侧快捷回复 【右侧内容,后台自定义】
您需要登录后才可以回帖 登录 | 立即加入

本版积分规则

Archiver|小黑屋| 蓝光电影网 |网站地图

Copyright © 2021 Comsenz Inc. Powered by 蓝光电影网

蓝光电影网

本站内容由用户自主分享和转载自互联网,转载目的在于传递更多信息,并不代表本网赞同其观点和对其真实性负责。

如有侵权、违反国家法律政策行为,请联系我们,我们会第一时间及时清除和处理!

举报反馈邮箱:[email protected]

快速回复 返回顶部 返回列表