找回密码

蓝光电影网

查看: 14|回复: 0

[惊悚] 地平线/空中谜航 Horizon.Line.2020.720p.BluRay.x264.DTS-MT 4.79GB

[复制链接]
蓝光币
382
发表于 2021-2-7 21:16:08 | 显示全部楼层 |阅读模式


◎译  名 地平线/空中谜航(台)
◎片  名 Horizon Line
◎年  代 2020
◎产  地 瑞典,美国
◎类  别 惊悚 / 灾难
◎语  言 英语
◎上映日期 2020-11-06(英国)
◎IMDb评分  4.6/10 from 3077 users
◎IMDb链接  https://www.imdb.com/title/tt5498354/
◎豆瓣评分 5.7/10 from 428 users
◎豆瓣链接 https://movie.douban.com/subject/33456921/
◎片  长 87分钟
◎导  演 米凯尔·马奇曼 Mikael Marcimain
◎编  剧 乔什·坎贝尔 Josh Campbell / 马修·斯托肯 Matthew Stuecken
◎主  演 亚历山大·德雷蒙 Alexander Dreymon
       艾莉森·威廉姆斯 Allison Williams
       凯斯·大卫 Keith David
       珀尔·麦基 Pearl Mackie
       贾马恩·亨特 Jumayn Hunter
◎标  签 灾难 | 惊悚 | 2020 | 瑞典 | 美国 | 悬疑 | 地平线 | 电影
◎简  介


  故事报告一对情侣坐小飞机去岛屿上加入婚礼,在分开小岛时飞翔员不幸突发心脏病,俩人得想法子活下来。
  1. Video
  2. ID                                       : 1
  3. Format                                   : AVC
  4. Format/Info                              : Advanced Video Codec
  5. Format profile                           : [email protected]
  6. Format settings                          : CABAC / 12 Ref Frames
  7. Format settings, CABAC                   : Yes
  8. Format settings, Reference frames        : 12 frames
  9. Codec ID                                 : V_MPEG4/ISO/AVC
  10. Duration                                 : 1 h 31 min
  11. Bit rate                                 : 5 949 kb/s
  12. Width                                    : 1 280 pixels
  13. Height                                   : 536 pixels
  14. Display aspect ratio                     : 2.40:1
  15. Frame rate mode                          : Constant
  16. Frame rate                               : 23.976 (24000/1001/189150) FPS
  17. Color space                              : YUV
  18. Chroma subsampling                       : 4:2:0
  19. Bit depth                                : 8 bits
  20. Scan type                                : Progressive
  21. Bits/(Pixel*Frame)                       : 0.362
  22. Stream size                              : 3.82 GiB (80%)
  23. Writing library                          : x264 core 157 r2938 2b00a84 [email protected] Mod
  24. Encoding settings                        : cabac=1 / ref=12 / deblock=1:-3:-3 / analyse=0x3:0x133 / me=umh / subme=10 / psy=1 / psy_rd=1.05:0.00 / mixed_ref=1 / me_range=32 / chroma_me=1 / trellis=2 / 8x8dct=1 / cqm=0 / deadzone=21,11 / fast_pskip=0 / chroma_qp_offset=-2 / threads=12 / lookahead_threads=2 / sliced_threads=0 / nr=0 / decimate=0 / interlaced=0 / bluray_compat=0 / constrained_intra=0 / bframes=8 / b_pyramid=2 / b_adapt=2 / b_bias=0 / direct=3 / weightb=1 / open_gop=0 / weightp=2 / keyint=250 / keyint_min=24 / scenecut=40 / intra_refresh=0 / rc_lookahead=250 / rc=crf / mbtree=0 / crf=16.8 / qcomp=0.60 / qpmin=0 / qpmax=69 / qpstep=4 / vbv_maxrate=62500 / vbv_bufsize=78125 / crf_max=0.0 / nal_hrd=none / filler=0 / ip_ratio=1.30 / pb_ratio=1.20 / aq=3:0.80
  25. Language                                 : English
  26. Default                                  : Yes
  27. Forced                                   : No
  28. Color range                              : Limited
  29. Color primaries                          : BT.709
  30. Matrix coefficients                      : BT.709
  31. Audio
  32. ID                                       : 2
  33. Format                                   : DTS
  34. Format/Info                              : Digital Theater Systems
  35. Codec ID                                 : A_DTS
  36. Duration                                 : 1 h 31 min
  37. Bit rate mode                            : Constant
  38. Bit rate                                 : 1 509 kb/s
  39. Channel(s)                               : 6 channels
  40. Channel layout                           : C L R Ls Rs LFE
  41. Sampling rate                            : 48.0 kHz
  42. Frame rate                               : 93.750 FPS (512 SPF)
  43. Bit depth                                : 24 bits
  44. Compression mode                         : Lossy
  45. Stream size                              : 993 MiB (20%)
  46. Language                                 : English
  47. Default                                  : Yes
  48. Forced                                   : No
  49. Text
  50. ID                                       : 3
  51. Format                                   : UTF-8
  52. Codec ID                                 : S_TEXT/UTF8
  53. Codec ID/Info                            : UTF-8 Plain Text
  54. Duration                                 : 1 h 20 min
  55. Bit rate                                 : 41 b/s
  56. Count of elements                        : 881
  57. Stream size                              : 24.8 KiB (0%)
  58. Title                                    : SRT
  59. Language                                 : English
  60. Default                                  : Yes
  61. Forced                                   : No
  62. Menu
  63. 00:00:00.000                             : en:Chapter 01
  64. 00:05:02.719                             : en:Chapter 02
  65. 00:08:35.807                             : en:Chapter 03
  66. 00:12:02.639                             : en:Chapter 04
  67. 00:14:43.758                             : en:Chapter 05
  68. 00:17:57.118                             : en:Chapter 06
  69. 00:23:35.706                             : en:Chapter 07
  70. 00:29:23.720                             : en:Chapter 08
  71. 00:31:57.207                             : en:Chapter 09
  72. 00:38:58.920                             : en:Chapter 10
  73. 00:42:30.965                             : en:Chapter 11
  74. 00:48:51.512                             : en:Chapter 12
  75. 00:53:58.610                             : en:Chapter 13
  76. 00:58:11.238                             : en:Chapter 14
  77. 01:04:53.890                             : en:Chapter 15
  78. 01:08:17.510                             : en:Chapter 16
  79. 01:12:32.890                             : en:Chapter 17
  80. 01:15:26.731                             : en:Chapter 18
  81. 01:18:29.079                             : en:Chapter 19
  82. 01:23:45.103                             : en:Chapter 20
复制代码






                                       
                                       

                                       
                                       
                                       




回复

使用道具 举报

懒得打字嘛,点击右侧快捷回复 【右侧内容,后台自定义】
您需要登录后才可以回帖 登录 | 立即加入

本版积分规则

Archiver|小黑屋| 蓝光电影网 |网站地图

Copyright © 2021 Comsenz Inc. Powered by 蓝光电影网

蓝光电影网

本站内容由用户自主分享和转载自互联网,转载目的在于传递更多信息,并不代表本网赞同其观点和对其真实性负责。

如有侵权、违反国家法律政策行为,请联系我们,我们会第一时间及时清除和处理!

举报反馈邮箱:[email protected]

快速回复 返回顶部 返回列表