找回密码

蓝光电影网

查看: 17|回复: 0

[科幻] 楼上的外星人/他们来自楼上 Aliens.In.The.Attic.2009.1080p.BluRay.x264.DTS-CHD 7.92GB

[复制链接]
蓝光币
426
发表于 2020-11-14 08:32:04 | 显示全部楼层 |阅读模式


◎译  名 楼上的外星人/他们来自楼上/楼上邻人外星人(台)/爆炸屋顶外星人(港)
◎片  名 Aliens in the Attic
◎年  代 2009
◎产  地 美国,加拿大
◎类  别 科幻 / 家庭 / 奇异 / 冒险
◎语  言 英语
◎上映日期 2009-07-31
◎IMDb评分  5.4/10 from 20584 users
◎IMDb链接  https://www.imdb.com/title/tt0775552/
◎豆瓣评分 6.4/10 from 5095 users
◎豆瓣链接 https://movie.douban.com/subject/3007297/
◎片  长 86 分钟
◎导  演 约翰·舒尔茨 John Schultz
◎编  剧 亚当·F·戈德堡 Adam F. Goldberg / 马克·伯顿 Mark Burton
◎主  演 卡特·詹金斯 Carter Jenkins
       奥斯汀·巴特勒 Austin Butler
       阿什丽·提斯代尔 Ashley Tisdale
       吉莲·韦格曼 Gillian Vigman
       蒂姆·麦道斯 Tim Meadows
       罗伯特·霍夫曼 Robert Hoffman
       J·K·西蒙斯 J.K. Simmons
       阿什利·博彻 Ashley Boettcher
       乔希·佩克 Josh Peck
       艾什丽·佩顿 Ashley Peldon
       安迪·里克特 Andy Richter
       多莉丝·罗伯茨 Doris Roberts
       凯文·尼龙 Kevin Nealon
       托马斯·哈登·丘奇 Thomas Haden Church
       玛莱斯·裘 Malese Jow
◎标  签 科幻 | 笑剧 | 美国 | 搞笑 | 美国电影 | 楼上的外星人 | 2009 | 儿童
◎简  介


  皮尔森(凯文?尼龙 Kevin Nealon 饰)带着家人来到郊外的别墅和弟弟一家一路避暑度假。一场看似普通的流星雨让4个带着可以控制人思维的高科技仪器诡计侵犯地球的外星人迫降在别墅的阁楼里。他们开初操纵控制贝瑟尼(阿什丽?提斯代尔 Ashley Tisdale 饰)的男朋友里基(罗伯特?霍夫曼 Robert Hoffman 饰)悄悄打入这家人中,可不意还是被皮尔森家的孩子们灵敏的发觉到。虽然家里的大人不相信小孩子们的说法,可孩子们还是渐渐意想到了家中阁楼上这四个外星人存在的庞大潜伏危机,静静的团结在一路起头了一场人类保卫战。而那四个外星人也不甘逞强,面临孩子们制造出的各类新奇的小兵器,他们用控制人思维的机械控制了家里的大人来反扑这些孩子们。可这四个外星人里有一个破例,就是技师斯帕克斯,原本就无意恋战的他更是机遇偶合的和汉娜结成了好友,改邪归正的起头帮助皮尔森一家。面临强大的外星人入侵,孩子们能否把这场人类危机逢凶化吉呢?
◎获奖情况
  第11届美国青少年挑选奖 ?(2009)
  最好暑期电影女演员(提名) 阿什丽·提斯代尔
  1. Video
  2. ID                                       : 1
  3. Format                                   : AVC
  4. Format/Info                              : Advanced Video Codec
  5. Format profile                           : [email protected]
  6. Format settings                          : CABAC / 4 Ref Frames
  7. Format settings, CABAC                   : Yes
  8. Format settings, Reference frames        : 4 frames
  9. Codec ID                                 : V_MPEG4/ISO/AVC
  10. Duration                                 : 1 h 25 min
  11. Bit rate                                 : 11.7 Mb/s
  12. Width                                    : 1 920 pixels
  13. Height                                   : 1 040 pixels
  14. Display aspect ratio                     : 1.85:1
  15. Frame rate mode                          : Constant
  16. Frame rate                               : 23.976 FPS
  17. Color space                              : YUV
  18. Chroma subsampling                       : 4:2:0
  19. Bit depth                                : 8 bits
  20. Scan type                                : Progressive
  21. Bits/(Pixel*Frame)                       : 0.245
  22. Stream size                              : 6.85 GiB (87%)
  23. Writing library                          : x264 core 120 r2120 0c7dab9
  24. Encoding settings                        : cabac=1 / ref=4 / deblock=1:-3:-3 / analyse=0x3:0x113 / me=umh / subme=10 / psy=1 / psy_rd=1.05:0.10 / mixed_ref=1 / me_range=32 / chroma_me=1 / trellis=2 / 8x8dct=1 / cqm=1 / deadzone=21,11 / fast_pskip=0 / chroma_qp_offset=-2 / threads=12 / sliced_threads=0 / nr=0 / decimate=1 / interlaced=0 / bluray_compat=0 / constrained_intra=0 / bframes=6 / b_pyramid=2 / b_adapt=2 / b_bias=0 / direct=3 / weightb=1 / open_gop=0 / weightp=2 / keyint=250 / keyint_min=23 / scenecut=40 / intra_refresh=0 / rc_lookahead=60 / rc=2pass / mbtree=1 / bitrate=11710 / ratetol=2.0 / qcomp=0.70 / qpmin=3 / qpmax=69 / qpstep=4 / cplxblur=20.0 / qblur=0.5 / vbv_maxrate=40000 / vbv_bufsize=30000 / nal_hrd=none / ip_ratio=1.40 / aq=1:0.90
  25. Language                                 : English
  26. Default                                  : No
  27. Forced                                   : No

  28. Audio
  29. ID                                       : 2
  30. Format                                   : DTS
  31. Format/Info                              : Digital Theater Systems
  32. Codec ID                                 : A_DTS
  33. Duration                                 : 1 h 25 min
  34. Bit rate mode                            : Constant
  35. Bit rate                                 : 1 509 kb/s
  36. Channel(s)                               : 6 channels
  37. Channel layout                           : C L R Ls Rs LFE
  38. Sampling rate                            : 48.0 kHz
  39. Frame rate                               : 93.750 FPS (512 SPF)
  40. Bit depth                                : 24 bits
  41. Compression mode                         : Lossy
  42. Stream size                              : 926 MiB (11%)
  43. Language                                 : English
  44. Default                                  : Yes
  45. Forced                                   : No
复制代码





                                       
                                       

                                       
                                       
                                       




回复

使用道具 举报

懒得打字嘛,点击右侧快捷回复 【右侧内容,后台自定义】
您需要登录后才可以回帖 登录 | 立即加入

本版积分规则

Archiver|小黑屋| 蓝光电影网 |网站地图

Copyright © 2021 Comsenz Inc. Powered by 蓝光电影网

蓝光电影网

本站内容由用户自主分享和转载自互联网,转载目的在于传递更多信息,并不代表本网赞同其观点和对其真实性负责。

如有侵权、违反国家法律政策行为,请联系我们,我们会第一时间及时清除和处理!

举报反馈邮箱:[email protected]

快速回复 返回顶部 返回列表