找回密码

蓝光电影网

查看: 6|回复: 0

[恐怖] 鬼屋魔咒/鬼哭神嚎5 The.Amityville.Curse.1990.1080p.BluRay.x264-GUACAMOLE 7.25GB

[复制链接]
蓝光币
382
发表于 2020-12-12 13:20:43 | 显示全部楼层 |阅读模式
[img][/img]

◎译  名 鬼屋魔咒/鬼哭神嚎5
◎片  名 The Amityville Curse
◎年  代 1990
◎产  地 加拿大,美国
◎类  别 可骇
◎语  言 英语
◎上映日期 1990-05-07(美国)
◎IMDb评分  2.9/10 from 1778 users
◎IMDb链接  https://www.imdb.com/title/tt0099030/
◎豆瓣评分 /10 from 0 users
◎豆瓣链接 https://movie.douban.com/subject/1301933/
◎片  长 USA: 91 分钟
◎编  剧 Hans Holzer
◎主  演 扬·鲁布斯 Jan Rubes
       Anthony Dean Rubes
       Ali Giron
       Norris Domingue
       马克·卡马乔 Mark Camacho
       卡桑德拉·加瓦 Cassandra Gava
       金·寇兹 Kim Coates
       Richard Tassé
       斯科特·雅菲 Scott Yaphe
◎标  签 可骇 | 美国电影 | 美国 | 灵异 | Horror&Thriller | Canada | 1990
◎简  介


  Five people spend the night in an abandoned house, the Amityville haunted house, and soon find themselves terrorized by assorted ghosts, venomous insects and ghostly apparitions.
  1. Video
  2. ID                                       : 1
  3. Format                                   : AVC
  4. Format/Info                              : Advanced Video Codec
  5. Format profile                           : [email protected]
  6. Format settings                          : CABAC / 4 Ref Frames
  7. Format settings, CABAC                   : Yes
  8. Format settings, Reference frames        : 4 frames
  9. Codec ID                                 : V_MPEG4/ISO/AVC
  10. Duration                                 : 1 h 31 min
  11. Bit rate                                 : 10.9 Mb/s
  12. Width                                    : 1 920 pixels
  13. Height                                   : 1 080 pixels
  14. Display aspect ratio                     : 16:9
  15. Frame rate mode                          : Constant
  16. Frame rate                               : 23.976 (24000/1001/189150) FPS
  17. Color space                              : YUV
  18. Chroma subsampling                       : 4:2:0
  19. Bit depth                                : 8 bits
  20. Scan type                                : Progressive
  21. Bits/(Pixel*Frame)                       : 0.220
  22. Stream size                              : 6.94 GiB (96%)
  23. Writing library                          : x264 core 161 r3027 4121277
  24. Encoding settings                        : cabac=1 / ref=4 / deblock=1:-3:-3 / analyse=0x3:0x133 / me=umh / subme=9 / psy=1 / psy_rd=1.00:0.00 / mixed_ref=1 / me_range=16 / chroma_me=1 / trellis=2 / 8x8dct=1 / cqm=0 / deadzone=21,11 / fast_pskip=0 / chroma_qp_offset=-2 / threads=24 / lookahead_threads=2 / sliced_threads=0 / nr=0 / decimate=1 / interlaced=0 / bluray_compat=0 / constrained_intra=0 / bframes=3 / b_pyramid=2 / b_adapt=2 / b_bias=0 / direct=3 / weightb=1 / open_gop=0 / weightp=2 / keyint=250 / keyint_min=23 / scenecut=40 / intra_refresh=0 / rc_lookahead=60 / rc=crf / mbtree=1 / crf=21.0 / qcomp=0.60 / qpmin=0 / qpmax=69 / qpstep=4 / ip_ratio=1.40 / aq=3:0.60
  25. Default                                  : Yes
  26. Forced                                   : No
  27. Color range                              : Limited
  28. Color primaries                          : BT.709
  29. Transfer characteristics                 : BT.709
  30. Matrix coefficients                      : BT.709

  31. Audio
  32. ID                                       : 2
  33. Format                                   : FLAC
  34. Format/Info                              : Free Lossless Audio Codec
  35. Codec ID                                 : A_FLAC
  36. Duration                                 : 1 h 31 min
  37. Bit rate mode                            : Variable
  38. Bit rate                                 : 489 kb/s
  39. Channel(s)                               : 2 channels
  40. Channel layout                           : L R
  41. Sampling rate                            : 48.0 kHz
  42. Frame rate                               : 10.417 FPS (4608 SPF)
  43. Bit depth                                : 16 bits
  44. Compression mode                         : Lossless
  45. Stream size                              : 319 MiB (4%)
  46. Writing library                          : MakeMKV v1.15.1 win(x64-release)
  47. Language                                 : English
  48. Default                                  : Yes
  49. Forced                                   : No

  50. Menu
  51. 00:00:00.000                             : en:00:00:00.000
  52. 00:15:12.912                             : en:00:15:12.912
  53. 00:26:59.910                             : en:00:26:59.910
  54. 00:49:17.997                             : en:00:49:17.997
  55. 01:04:05.717                             : en:01:04:05.717
  56. 01:17:08.582                             : en:01:17:08.582
复制代码



                                       
                                       

                                       
                                       
                                       




回复

使用道具 举报

懒得打字嘛,点击右侧快捷回复 【右侧内容,后台自定义】
您需要登录后才可以回帖 登录 | 立即加入

本版积分规则

Archiver|小黑屋| 蓝光电影网 |网站地图

Copyright © 2021 Comsenz Inc. Powered by 蓝光电影网

蓝光电影网

本站内容由用户自主分享和转载自互联网,转载目的在于传递更多信息,并不代表本网赞同其观点和对其真实性负责。

如有侵权、违反国家法律政策行为,请联系我们,我们会第一时间及时清除和处理!

举报反馈邮箱:[email protected]

快速回复 返回顶部 返回列表