找回密码

蓝光电影网

查看: 10|回复: 0

[动作] 我是复仇者2 I.Am.Vengeance.Retaliation.2020.720p.BluRay.x264-YOL0W 3.43GB

[复制链接]
蓝光币
382
发表于 2020-8-7 23:15:09 | 显示全部楼层 |阅读模式


◎译  名 我是复仇者2 / Vengeance 2
◎片  名 I Am Vengeance: Retaliation
◎年  代 2019
◎产  地 美国
◎类  别 行动
◎语  言 英语
◎上映日期 2020-06-19(美国)
◎IMDb评分  3.6/10 from 235 users
◎IMDb链接  https://www.imdb.com/title/tt8972556
◎豆瓣评分 0/10 from 0 users
◎豆瓣链接 https://movie.douban.com/subject/30336154/
◎片  长 90分钟
◎导  演 Ross Boyask
◎编  剧 Ross Boyask
◎主  演 维尼·琼斯 Vinnie Jones
       斯图·班尼特 Stu Bennett
       让-保罗·李 Jean-Paul Ly
       杰西卡·简·克莱蒙特 Jessica Jane Clement
       李·查尔斯 Lee Charles
       宾利·卡鲁 Bentley Kalu
       Katrina Durden
       David Schaal
       Josh Myers
       Joe Egan
       Mark Griffin
       Jennifer Lee Moon
       Darren Burridge
       Matt Routledge

◎标  签 美国 | 2020
◎简  介

  
  Former special-forces soldier John Gold is given the opportunity to bring Sean Teague - the man who betrayed his team on their final mission in Eastern Europe several years ago - to justice. Gold would cheerfully see Teague dead, but he is convinced to help transport him to a military prison to pay for his crimes. Along the way, Gold will have to fight off Teague's team who are attempting to extract him, as well as a sniper seemingly hell-bent on killing Teague before he can be secured.
  1. Video
  2. ID                                       : 1
  3. Format                                   : AVC
  4. Format/Info                              : Advanced Video Codec
  5. Format profile                           : [email protected]
  6. Format settings                          : CABAC / 8 Ref Frames
  7. Format settings, CABAC                   : Yes
  8. Format settings, Reference frames        : 8 frames
  9. Codec ID                                 : V_MPEG4/ISO/AVC
  10. Duration                                 : 1 h 22 min
  11. Bit rate                                 : 5 180 kb/s
  12. Width                                    : 1 280 pixels
  13. Height                                   : 544 pixels
  14. Display aspect ratio                     : 2.35:1
  15. Frame rate mode                          : Constant
  16. Frame rate                               : 23.976 (24000/1001/189150) FPS
  17. Color space                              : YUV
  18. Chroma subsampling                       : 4:2:0
  19. Bit depth                                : 8 bits
  20. Scan type                                : Progressive
  21. Bits/(Pixel*Frame)                       : 0.310
  22. Stream size                              : 2.98 GiB (87%)
  23. Writing library                          : x264 core 161 r3018 db0d417
  24. Encoding settings                        : cabac=1 / ref=8 / deblock=1:-3:-3 / analyse=0x3:0x133 / me=umh / subme=9 / psy=1 / psy_rd=1.00:0.00 / mixed_ref=1 / me_range=16 / chroma_me=1 / trellis=2 / 8x8dct=1 / cqm=0 / deadzone=21,11 / fast_pskip=0 / chroma_qp_offset=-2 / threads=16 / lookahead_threads=2 / sliced_threads=0 / nr=0 / decimate=0 / interlaced=0 / bluray_compat=0 / constrained_intra=0 / bframes=8 / b_pyramid=2 / b_adapt=2 / b_bias=0 / direct=3 / weightb=1 / open_gop=0 / weightp=2 / keyint=250 / keyint_min=23 / scenecut=40 / intra_refresh=0 / rc=crf / mbtree=0 / crf=15.0 / qcomp=0.60 / qpmin=0 / qpmax=69 / qpstep=4 / ip_ratio=1.40 / pb_ratio=1.30 / aq=3:0.80
  25. Language                                 : English
  26. Default                                  : Yes
  27. Forced                                   : No
  28. Color range                              : Limited
  29. Matrix coefficients                      : BT.709

  30. Audio #1
  31. ID                                       : 2
  32. Format                                   : AC-3
  33. Format/Info                              : Audio Coding 3
  34. Commercial name                          : Dolby Digital
  35. Codec ID                                 : A_AC3
  36. Duration                                 : 1 h 22 min
  37. Bit rate mode                            : Constant
  38. Bit rate                                 : 640 kb/s
  39. Channel(s)                               : 6 channels
  40. Channel layout                           : L R C LFE Ls Rs
  41. Sampling rate                            : 48.0 kHz
  42. Frame rate                               : 31.250 FPS (1536 SPF)
  43. Bit depth                                : 16 bits
  44. Compression mode                         : Lossy
  45. Stream size                              : 376 MiB (11%)
  46. Title                                    : English
  47. Language                                 : English
  48. Service kind                             : Complete Main
  49. Default                                  : Yes
  50. Forced                                   : No

  51. Audio #2
  52. ID                                       : 3
  53. Format                                   : AAC LC
  54. Format/Info                              : Advanced Audio Codec Low Complexity
  55. Codec ID                                 : A_AAC-2
  56. Duration                                 : 1 h 22 min
  57. Bit rate                                 : 105 kb/s
  58. Channel(s)                               : 2 channels
  59. Channel layout                           : L R
  60. Sampling rate                            : 48.0 kHz
  61. Frame rate                               : 46.875 FPS (1024 SPF)
  62. Compression mode                         : Lossy
  63. Delay relative to video                  : 9 ms
  64. Stream size                              : 61.9 MiB (2%)
  65. Title                                    : Commentary With Director Ross Boyask And Actor Stu Bennett
  66. Language                                 : English
  67. Default                                  : No
  68. Forced                                   : No

  69. Text #1
  70. ID                                       : 4
  71. Format                                   : PGS
  72. Muxing mode                              : zlib
  73. Codec ID                                 : S_HDMV/PGS
  74. Codec ID/Info                            : Picture based subtitle format used on BDs/HD-DVDs
  75. Duration                                 : 1 h 15 min
  76. Bit rate                                 : 23.0 kb/s
  77. Count of elements                        : 1408
  78. Stream size                              : 12.4 MiB (0%)
  79. Language                                 : English
  80. Default                                  : No
  81. Forced                                   : No

  82. Text #2
  83. ID                                       : 5
  84. Format                                   : PGS
  85. Muxing mode                              : zlib
  86. Codec ID                                 : S_HDMV/PGS
  87. Codec ID/Info                            : Picture based subtitle format used on BDs/HD-DVDs
  88. Duration                                 : 1 h 20 min
  89. Bit rate                                 : 25.3 kb/s
  90. Count of elements                        : 1898
  91. Stream size                              : 14.7 MiB (0%)
  92. Language                                 : English
  93. Default                                  : No
  94. Forced                                   : No

  95. Text #3
  96. ID                                       : 6
  97. Format                                   : PGS
  98. Muxing mode                              : zlib
  99. Codec ID                                 : S_HDMV/PGS
  100. Codec ID/Info                            : Picture based subtitle format used on BDs/HD-DVDs
  101. Duration                                 : 1 h 19 min
  102. Bit rate                                 : 21.4 kb/s
  103. Count of elements                        : 1410
  104. Stream size                              : 12.1 MiB (0%)
  105. Language                                 : Spanish
  106. Default                                  : No
  107. Forced                                   : No

  108. Menu
  109. 00:00:00.000                             : en:Chapter 01
  110. 00:06:22.424                             : en:Chapter 02
  111. 00:09:38.620                             : en:Chapter 03
  112. 00:15:25.466                             : en:Chapter 04
  113. 00:18:08.629                             : en:Chapter 05
  114. 00:23:19.940                             : en:Chapter 06
  115. 00:27:18.679                             : en:Chapter 07
  116. 00:29:28.809                             : en:Chapter 08
  117. 00:35:51.691                             : en:Chapter 09
  118. 00:40:13.453                             : en:Chapter 10
  119. 00:45:30.269                             : en:Chapter 11
  120. 00:51:16.615                             : en:Chapter 12
  121. 00:58:00.519                             : en:Chapter 13
  122. 01:02:08.767                             : en:Chapter 14
  123. 01:04:37.415                             : en:Chapter 15
  124. 01:14:50.027                             : en:Chapter 16
复制代码




                                       
                                       

                                       
                                       
                                       




回复

使用道具 举报

懒得打字嘛,点击右侧快捷回复 【右侧内容,后台自定义】
您需要登录后才可以回帖 登录 | 立即加入

本版积分规则

Archiver|小黑屋| 蓝光电影网 |网站地图

Copyright © 2021 Comsenz Inc. Powered by 蓝光电影网

蓝光电影网

本站内容由用户自主分享和转载自互联网,转载目的在于传递更多信息,并不代表本网赞同其观点和对其真实性负责。

如有侵权、违反国家法律政策行为,请联系我们,我们会第一时间及时清除和处理!

举报反馈邮箱:[email protected]

快速回复 返回顶部 返回列表