找回密码

蓝光电影网

查看: 8|回复: 0

[喜剧] 一個好人 Mr.Nice.Guy.1997.720p.BluRay.x264-GiMCHi 4.38GB

[复制链接]
蓝光币
382
发表于 2019-12-21 11:25:26 | 显示全部楼层 |阅读模式


◎译  名 一个好人 / Mr. Nice Guy / 义胆厨星
◎片  名 一個好人
◎年  代 1997
◎产  地 中国香港
◎类  别 笑剧 / 行动 / 犯罪
◎语  言 英语 / 汉语普通话 / 粤语
◎上映日期 1997-01-31(中国香港)
◎IMDb评分  6.2/10 from 23787 users
◎IMDb链接  https://www.imdb.com/title/tt0117786
◎豆瓣评分 7.0/10 from 20947 users
◎豆瓣链接 https://movie.douban.com/subject/1295547/
◎片  长 97分钟
◎导  演 洪金宝
◎编  剧 马美萍 Fibe Ma / 邓景生 Edward Tang
◎主  演 成龙 Jackie Chan
       理查德·诺顿 Richard Norton
       李婷宜 Miki Lee
       Karen McLymont
       加布里埃尔·费茨帕特里克 Gabrielle Fitzpatrick
       Vince Poletto
       Barry Otto
       洪金宝 Sammo Hung Kam-Bo
       周华健 Emil Chau
       高丽虹 Joyce Godenzi
       Peter Houghton
       Peter Lindsay
       大卫·诺 David No
       Rachel Blakely
       Judy Green
       Aaron Notarfrancesco
       Jake Notarfrancesco
       Frederick Miragliotta
       Nick Carrafa
       Keith Agius
       Carla Bonner
       陈英明 Glen Chin

◎标  签 成龙 | 行动 | 香港 | 笑剧 | 香港电影 | 洪金宝 | 1997 | 一个好人
◎简  介  
  澳大利亚墨尔本,华裔厨师积奇(成龙 饰)是当地小著名望的人物,定期在电视上主持烹饪节目。
  毒枭金·卡洛(Richard Norton 饰)团体很有势力,金·卡洛本人残暴刻毒,断根了敌对帮派的卧底以后率众和对方在仓库大打脱手,而枪战全进程被记者戴安娜(Gabrielle Fitzpatrick 饰)用摄影机记录。在躲避贩毒团体追逐的路上,戴安娜巧遇积奇,后者仗义脱手为她引开暴徒,孰料两人分手时戴安娜错将积奇的节目录像带当做证据带走。戴安娜的住处很快被贩毒团体找到,遍搜不获的暴徒们起头将方针转向积奇。积奇女友美琪(李婷宜 饰)远道来访,特地加入了积奇的节目录制,贩毒团体在录制现场围捕积奇,经过一番陌头苦战,积奇终究脱险。黄雀在后的金·卡洛敌对帮派带走了美琪,威胁积奇用录像带换人,一时候,围绕着录像带,积奇、警方、以及两个犯罪团体堕入了紊乱的争取战。
◎获奖情况  
  第34届台北金马影展(1997)
  金马奖 最好行动设想 曹荣
  金马奖 最好剪辑(提名) 张耀宗 / 邱志伟
  第17届香港电影金像奖(1998)
  最好行动设想(提名) 曹荣
  1. Video
  2. ID                                       : 1
  3. Format                                   : AVC
  4. Format/Info                              : Advanced Video Codec
  5. Format profile                           : [email protected]
  6. Format settings                          : CABAC / 5 Ref Frames
  7. Format settings, CABAC                   : Yes
  8. Format settings, Reference frames        : 5 frames
  9. Codec ID                                 : V_MPEG4/ISO/AVC
  10. Duration                                 : 1 h 37 min
  11. Bit rate                                 : 4 907 kb/s
  12. Width                                    : 1 280 pixels
  13. Height                                   : 536 pixels
  14. Display aspect ratio                     : 2.40:1
  15. Frame rate mode                          : Constant
  16. Frame rate                               : 23.976 (24000/1001) FPS
  17. Color space                              : YUV
  18. Chroma subsampling                       : 4:2:0
  19. Bit depth                                : 8 bits
  20. Scan type                                : Progressive
  21. Bits/(Pixel*Frame)                       : 0.298
  22. Stream size                              : 3.34 GiB (76%)
  23. Writing library                          : x264 core 158 r2988 7817004
  24. Encoding settings                        : cabac=1 / ref=5 / deblock=1:0:0 / analyse=0x3:0x133 / me=umh / subme=7 / psy=1 / psy_rd=1.00:0.00 / mixed_ref=1 / me_range=16 / chroma_me=1 / trellis=1 / 8x8dct=1 / cqm=0 / deadzone=21,11 / fast_pskip=0 / chroma_qp_offset=-2 / threads=12 / lookahead_threads=2 / sliced_threads=0 / nr=0 / decimate=1 / interlaced=0 / bluray_compat=0 / constrained_intra=0 / bframes=3 / b_pyramid=2 / b_adapt=2 / b_bias=0 / direct=3 / weightb=1 / open_gop=0 / weightp=2 / keyint=240 / keyint_min=23 / scenecut=40 / intra_refresh=0 / rc_lookahead=50 / rc=2pass / mbtree=1 / bitrate=4907 / ratetol=1.0 / qcomp=0.60 / qpmin=0 / qpmax=69 / qpstep=4 / cplxblur=20.0 / qblur=0.5 / ip_ratio=1.40 / aq=1:1.00
  25. Language                                 : English
  26. Default                                  : Yes
  27. Forced                                   : No

  28. Audio
  29. ID                                       : 2
  30. Format                                   : DTS
  31. Format/Info                              : Digital Theater Systems
  32. Codec ID                                 : A_DTS
  33. Duration                                 : 1 h 37 min
  34. Bit rate mode                            : Constant
  35. Bit rate                                 : 1 509 kb/s
  36. Channel(s)                               : 6 channels
  37. Channel layout                           : C L R Ls Rs LFE
  38. Sampling rate                            : 48.0 kHz
  39. Frame rate                               : 93.750 FPS (512 SPF)
  40. Bit depth                                : 24 bits
  41. Compression mode                         : Lossy
  42. Stream size                              : 1.03 GiB (24%)
  43. Title                                    : English
  44. Language                                 : English
  45. Default                                  : Yes
  46. Forced                                   : No

  47. Text
  48. ID                                       : 3
  49. Format                                   : UTF-8
  50. Codec ID                                 : S_TEXT/UTF8
  51. Codec ID/Info                            : UTF-8 Plain Text
  52. Duration                                 : 1 h 10 min
  53. Bit rate                                 : 3 b/s
  54. Count of elements                        : 76
  55. Stream size                              : 1.86 KiB (0%)
  56. Title                                    : Forced
  57. Language                                 : English
  58. Default                                  : Yes
  59. Forced                                   : Yes

  60. Menu
  61. 00:00:00.000                             : en:Chapter 01
  62. 00:00:40.791                             : en:Chapter 02
  63. 00:02:24.311                             : en:Chapter 03
  64. 00:03:31.336                             : en:Chapter 04
  65. 00:04:36.568                             : en:Chapter 05
  66. 00:06:43.695                             : en:Chapter 06
  67. 00:08:02.899                             : en:Chapter 07
  68. 00:11:54.714                             : en:Chapter 08
  69. 00:15:53.286                             : en:Chapter 09
  70. 00:17:24.043                             : en:Chapter 10
  71. 00:20:31.313                             : en:Chapter 11
  72. 00:22:07.493                             : en:Chapter 12
  73. 00:26:02.060                             : en:Chapter 13
  74. 00:28:56.777                             : en:Chapter 14
  75. 00:32:11.054                             : en:Chapter 15
  76. 00:37:13.231                             : en:Chapter 16
  77. 00:40:48.071                             : en:Chapter 17
  78. 00:45:58.089                             : en:Chapter 18
  79. 00:49:20.416                             : en:Chapter 19
  80. 00:54:41.403                             : en:Chapter 20
  81. 00:59:13.133                             : en:Chapter 21
  82. 00:59:49.294                             : en:Chapter 22
  83. 01:05:24.212                             : en:Chapter 23
  84. 01:10:25.555                             : en:Chapter 24
  85. 01:14:18.079                             : en:Chapter 25
  86. 01:18:44.929                             : en:Chapter 26
  87. 01:21:49.238                             : en:Chapter 27
  88. 01:24:43.495                             : en:Chapter 28
  89. 01:27:42.215                             : en:Chapter 29
  90. 01:33:00.492                             : en:Chapter 30
复制代码




                                       
                                       

                                       
                                       
                                       




回复

使用道具 举报

懒得打字嘛,点击右侧快捷回复 【右侧内容,后台自定义】
您需要登录后才可以回帖 登录 | 立即加入

本版积分规则

Archiver|小黑屋| 蓝光电影网 |网站地图

Copyright © 2021 Comsenz Inc. Powered by 蓝光电影网

蓝光电影网

本站内容由用户自主分享和转载自互联网,转载目的在于传递更多信息,并不代表本网赞同其观点和对其真实性负责。

如有侵权、违反国家法律政策行为,请联系我们,我们会第一时间及时清除和处理!

举报反馈邮箱:[email protected]

快速回复 返回顶部 返回列表