找回密码

蓝光电影网

查看: 30|回复: 0

[恐怖] 死二月 Deathcember.2019.UNCUT.1080p.BluRay.x264-GETiT 10.74GB

[复制链接]
蓝光币
386
发表于 2020-12-6 08:33:53 | 显示全部楼层 |阅读模式


◎译  名 死仲春
◎片  名 Deathcember
◎年  代 2019
◎产  地 德国
◎类  别 可骇
◎上映日期 2019-10-31(圣塞瓦斯蒂安可骇和空想电影节) / 2020-12-04(德国)
◎IMDb评分  4.4/10 from 229 users
◎IMDb链接  https://www.imdb.com/title/tt9301428/
◎豆瓣评分 /10 from 0 users
◎豆瓣链接 https://movie.douban.com/subject/30429857/
◎导  演 鲁杰罗·德奥达托 Ruggero Deodato / Sonia Escolano / 伊萨克·厄兹本 Isaac Ezban / 特伦特·海伽 Trent Haaga / 李尚宇 Sang-woo Lee / 宝拉雅娜·麦金托什 Pollyanna McIntosh / 拉齐·马凯 Lucky McKee / 朱利安·理查德 Julian Richards / Milan Todorovic / Michael Varrati / 拉扎尔·博德罗扎 Lazar Bodro?a
◎标  签 可骇 | 血腥 | 德国 | 过期血浆片 | 美国 | 没看完 | 德国电影 | 笑剧
◎简  介


  A collection of 24 films that take a look at the dark side of the festive season. 24 international directors with the most diverse ideas and styles; linked by short animated segments that deal with the Advent calendar itself.
  1. Video
  2. ID                                       : 1
  3. Format                                   : AVC
  4. Format/Info                              : Advanced Video Codec
  5. Format profile                           : [email protected]
  6. Format settings                          : CABAC / 4 Ref Frames
  7. Format settings, CABAC                   : Yes
  8. Format settings, Reference frames        : 4 frames
  9. Codec ID                                 : V_MPEG4/ISO/AVC
  10. Duration                                 : 2 h 25 min
  11. Bit rate                                 : 6 540 kb/s
  12. Width                                    : 1 920 pixels
  13. Height                                   : 1 080 pixels
  14. Display aspect ratio                     : 16:9
  15. Frame rate mode                          : Constant
  16. Frame rate                               : 24.000 FPS
  17. Color space                              : YUV
  18. Chroma subsampling                       : 4:2:0
  19. Bit depth                                : 8 bits
  20. Scan type                                : Progressive
  21. Bits/(Pixel*Frame)                       : 0.131
  22. Stream size                              : 6.66 GiB (62%)
  23. Writing library                          : x264 core 161 r3018 db0d417
  24. Encoding settings                        : cabac=1 / ref=4 / deblock=1:-3:-3 / analyse=0x3:0x133 / me=umh / subme=9 / psy=1 / psy_rd=1.00:0.00 / mixed_ref=1 / me_range=16 / chroma_me=1 / trellis=2 / 8x8dct=1 / cqm=0 / deadzone=21,11 / fast_pskip=1 / chroma_qp_offset=-2 / threads=16 / lookahead_threads=1 / sliced_threads=0 / nr=0 / decimate=1 / interlaced=0 / bluray_compat=0 / constrained_intra=0 / bframes=3 / b_pyramid=2 / b_adapt=2 / b_bias=0 / direct=3 / weightb=1 / open_gop=0 / weightp=2 / keyint=250 / keyint_min=24 / scenecut=40 / intra_refresh=0 / rc_lookahead=60 / rc=crf / mbtree=1 / crf=18.0 / qcomp=0.60 / qpmin=0 / qpmax=69 / qpstep=4 / ip_ratio=1.40 / aq=3:0.80
  25. Language                                 : English
  26. Default                                  : Yes
  27. Forced                                   : No
  28. Color range                              : Limited
  29. Matrix coefficients                      : BT.709

  30. Audio
  31. ID                                       : 2
  32. Format                                   : DTS XLL
  33. Format/Info                              : Digital Theater Systems
  34. Commercial name                          : DTS-HD Master Audio
  35. Codec ID                                 : A_DTS
  36. Duration                                 : 2 h 25 min
  37. Bit rate mode                            : Variable
  38. Bit rate                                 : 3 999 kb/s
  39. Channel(s)                               : 6 channels
  40. Channel layout                           : C L R Ls Rs LFE
  41. Sampling rate                            : 48.0 kHz
  42. Frame rate                               : 93.750 FPS (512 SPF)
  43. Bit depth                                : 24 bits
  44. Compression mode                         : Lossless
  45. Stream size                              : 4.07 GiB (38%)
  46. Title                                    : dtsxll
  47. Language                                 : English
  48. Default                                  : Yes
  49. Forced                                   : No

  50. Text
  51. ID                                       : 3
  52. Format                                   : PGS
  53. Muxing mode                              : zlib
  54. Codec ID                                 : S_HDMV/PGS
  55. Codec ID/Info                            : Picture based subtitle format used on BDs/HD-DVDs
  56. Duration                                 : 2 h 18 min
  57. Bit rate                                 : 7 492 b/s
  58. Count of elements                        : 1554
  59. Stream size                              : 7.45 MiB (0%)
  60. Title                                    : sub
  61. Language                                 : German
  62. Default                                  : No
  63. Forced                                   : No

  64. Menu
  65. 00:00:00.000                             : en:00:00:00.000
  66. 00:02:24.333                             : en:00:02:24.333
  67. 00:05:48.125                             : en:00:05:48.125
  68. 00:10:34.458                             : en:00:10:34.458
  69. 00:15:43.125                             : en:00:15:43.125
  70. 00:21:52.167                             : en:00:21:52.167
  71. 00:26:59.625                             : en:00:26:59.625
  72. 00:31:31.583                             : en:00:31:31.583
  73. 00:36:29.708                             : en:00:36:29.708
  74. 00:41:39.875                             : en:00:41:39.875
  75. 00:47:16.250                             : en:00:47:16.250
  76. 00:52:58.292                             : en:00:52:58.292
  77. 00:57:25.667                             : en:00:57:25.667
  78. 01:02:28.500                             : en:01:02:28.500
  79. 01:07:37.292                             : en:01:07:37.292
  80. 01:11:45.583                             : en:01:11:45.583
  81. 01:14:27.875                             : en:01:14:27.875
  82. 01:20:07.042                             : en:01:20:07.042
  83. 01:25:35.917                             : en:01:25:35.917
  84. 01:31:44.125                             : en:01:31:44.125
  85. 01:37:19.708                             : en:01:37:19.708
  86. 01:43:06.333                             : en:01:43:06.333
  87. 01:48:12.000                             : en:01:48:12.000
  88. 01:53:58.958                             : en:01:53:58.958
  89. 01:59:06.167                             : en:01:59:06.167
  90. 02:04:14.375                             : en:02:04:14.375
  91. 02:08:53.917                             : en:02:08:53.917
  92. 02:20:26.750                             : en:02:20:26.750
  93. 02:25:21.000                             : en:02:25:21.000
复制代码




                                       
                                       

                                       
                                       
                                       




回复

使用道具 举报

懒得打字嘛,点击右侧快捷回复 【右侧内容,后台自定义】
您需要登录后才可以回帖 登录 | 立即加入

本版积分规则

Archiver|小黑屋| 蓝光电影网 |网站地图

Copyright © 2021 Comsenz Inc. Powered by 蓝光电影网

蓝光电影网

本站内容由用户自主分享和转载自互联网,转载目的在于传递更多信息,并不代表本网赞同其观点和对其真实性负责。

如有侵权、违反国家法律政策行为,请联系我们,我们会第一时间及时清除和处理!

举报反馈邮箱:[email protected]

快速回复 返回顶部 返回列表