找回密码

蓝光电影网

查看: 27|回复: 0

[动作] 飞侠哥顿 Flash.Gordon.1980.REMASTERED.720p.BluRay.X264-AMIABLE 8.77GB

[复制链接]
蓝光币
386
发表于 2020-8-6 08:44:29 | 显示全部楼层 |阅读模式


◎译  名 飞侠哥顿
◎片  名 Flash Gordon
◎年  代 1980
◎产  地 英国
◎类  别 行动 / 科幻 / 冒险
◎语  言 英语
◎上映日期 1980-12-05(美国)
◎IMDb评分  6.5/10 from 49282 users
◎IMDb链接  https://www.imdb.com/title/tt0080745
◎豆瓣评分 6.5/10 from 422 users
◎豆瓣链接 https://movie.douban.com/subject/1300778/
◎片  长 111分钟
◎导  演 迈克·霍奇斯 Mike Hodges
◎编  剧 洛伦佐·森普尔 Lorenzo Semple Jr. / Michael Allin / 亚历克斯·雷蒙德 Alex Raymond
◎主  演 萨姆·琼斯 Sam J. Jones
       梅乐蒂·安德森 Melody Anderson
       马克斯·冯·叙多夫 Max von Sydow
       托波尔 Topol
       奥内拉·穆蒂 Ornella Muti
       提摩西·道尔顿 Timothy Dalton
       布耐恩·布莱塞得 Brian Blessed
       彼得·温贾德 Peter Wyngarde
       玛丽安杰拉·梅拉托 Mariangela Melato
       约翰·奥斯本 John Osborne
       理查德·奥布里恩 Richard O'Brien
       John Hallam
       菲利普·斯通 Philip Stone
       Suzanne Danielle
       威廉·胡特金斯 William Hootkins
       Stanley Lebor
       罗彼·考特拉尼 Robbie Coltrane
       Peter Duncan
       Oliver MacGreevy
       约翰·霍林斯 John Hollis
       Leon Greene
       Tony Scannell
       大卫·尼尔 David Neal
       博格丹·科米诺夫斯基 Bogdan Kominowski
       乔治·哈里斯 George Harris
       迪普·罗伊 Deep Roy
       伊莫金·克莱尔 Imogen Claire
       Andy Bradford
       泰瑞·佛瑞斯塔 Terry Forrestal
       约翰·利斯 John Lees
       维娃 Viva
       鲁斯迪·戈夫 Rusty Goffe
       Richard Jones
       肯尼·贝克 Kenny Baker

◎标  签 科幻 | 美国 | 1980 | cult | 冒险 | 英国 | 美国电影 | 1980s
◎简  介

  
  蒙戈星球的邪恶帝王明预备摧毁地球,查可夫预知外星人的进犯,因而逼迫高登及黛儿登上他的火箭,前往拯救地球。当查可夫等人甫到蒙戈星球,即被明王俘虏……
  1. Video
  2. ID                                       : 1
  3. Format                                   : AVC
  4. Format/Info                              : Advanced Video Codec
  5. Format profile                           : [email protected]
  6. Format settings                          : CABAC / 11 Ref Frames
  7. Format settings, CABAC                   : Yes
  8. Format settings, Reference frames        : 11 frames
  9. Codec ID                                 : V_MPEG4/ISO/AVC
  10. Duration                                 : 1 h 51 min
  11. Bit rate                                 : 8 909 kb/s
  12. Width                                    : 1 280 pixels
  13. Height                                   : 546 pixels
  14. Display aspect ratio                     : 2.35:1
  15. Frame rate mode                          : Constant
  16. Frame rate                               : 24.000 FPS
  17. Color space                              : YUV
  18. Chroma subsampling                       : 4:2:0
  19. Bit depth                                : 8 bits
  20. Scan type                                : Progressive
  21. Bits/(Pixel*Frame)                       : 0.531
  22. Stream size                              : 6.94 GiB (79%)
  23. Writing library                          : x264 core 161 r3018 db0d417
  24. Encoding settings                        : cabac=1 / ref=11 / deblock=1:-3:-3 / analyse=0x3:0x133 / me=umh / subme=10 / psy=1 / psy_rd=1.10:0.00 / mixed_ref=1 / me_range=32 / chroma_me=1 / trellis=2 / 8x8dct=1 / cqm=0 / deadzone=21,11 / fast_pskip=0 / chroma_qp_offset=-2 / threads=17 / lookahead_threads=4 / sliced_threads=0 / nr=0 / decimate=0 / interlaced=0 / bluray_compat=0 / constrained_intra=0 / bframes=10 / b_pyramid=2 / b_adapt=2 / b_bias=0 / direct=3 / weightb=1 / open_gop=0 / weightp=2 / keyint=250 / keyint_min=24 / scenecut=40 / intra_refresh=0 / rc=crf / mbtree=0 / crf=17.3 / qcomp=0.60 / qpmin=0 / qpmax=69 / qpstep=4 / ip_ratio=1.30 / pb_ratio=1.20 / aq=3:0.70
  25. Default                                  : Yes
  26. Forced                                   : No
  27. Color range                              : Limited
  28. Matrix coefficients                      : BT.709

  29. Audio #1
  30. ID                                       : 2
  31. Format                                   : AC-3
  32. Format/Info                              : Audio Coding 3
  33. Commercial name                          : Dolby Digital
  34. Codec ID                                 : A_AC3
  35. Duration                                 : 1 h 51 min
  36. Bit rate mode                            : Constant
  37. Bit rate                                 : 640 kb/s
  38. Channel(s)                               : 6 channels
  39. Channel layout                           : L R C LFE Ls Rs
  40. Sampling rate                            : 48.0 kHz
  41. Frame rate                               : 31.250 FPS (1536 SPF)
  42. Bit depth                                : 16 bits
  43. Compression mode                         : Lossy
  44. Stream size                              : 510 MiB (6%)
  45. Title                                    : AC-3 5.1
  46. Language                                 : English
  47. Service kind                             : Complete Main
  48. Default                                  : Yes
  49. Forced                                   : No

  50. Audio #2
  51. ID                                       : 14
  52. Format                                   : FLAC
  53. Format/Info                              : Free Lossless Audio Codec
  54. Codec ID                                 : A_FLAC
  55. Duration                                 : 1 h 51 min
  56. Bit rate mode                            : Variable
  57. Bit rate                                 : 1 319 kb/s
  58. Channel(s)                               : 2 channels
  59. Channel layout                           : L R
  60. Sampling rate                            : 48.0 kHz
  61. Frame rate                               : 11.719 FPS (4096 SPF)
  62. Bit depth                                : 24 bits
  63. Compression mode                         : Lossless
  64. Stream size                              : 1.03 GiB (12%)
  65. Title                                    : Original Audio
  66. Writing library                          : libFLAC 1.2.1 (UTC 2007-09-17)
  67. Language                                 : English
  68. Default                                  : No
  69. Forced                                   : No

  70. Audio #3
  71. ID                                       : 15
  72. Format                                   : AAC LC
  73. Format/Info                              : Advanced Audio Codec Low Complexity
  74. Codec ID                                 : A_AAC-2
  75. Duration                                 : 1 h 51 min
  76. Bit rate                                 : 132 kb/s
  77. Channel(s)                               : 2 channels
  78. Channel layout                           : L R
  79. Sampling rate                            : 48.0 kHz
  80. Frame rate                               : 46.875 FPS (1024 SPF)
  81. Compression mode                         : Lossy
  82. Delay relative to video                  : 9 ms
  83. Stream size                              : 104 MiB (1%)
  84. Title                                    : Commentary by director Mike Hodges
  85. Language                                 : English
  86. Default                                  : No
  87. Forced                                   : No

  88. Audio #4
  89. ID                                       : 16
  90. Format                                   : AAC LC
  91. Format/Info                              : Advanced Audio Codec Low Complexity
  92. Codec ID                                 : A_AAC-2
  93. Duration                                 : 1 h 51 min
  94. Bit rate                                 : 132 kb/s
  95. Channel(s)                               : 2 channels
  96. Channel layout                           : L R
  97. Sampling rate                            : 48.0 kHz
  98. Frame rate                               : 46.875 FPS (1024 SPF)
  99. Compression mode                         : Lossy
  100. Delay relative to video                  : 9 ms
  101. Stream size                              : 106 MiB (1%)
  102. Title                                    : Commentary by actor Brian Blessed
  103. Language                                 : English
  104. Default                                  : No
  105. Forced                                   : No

  106. Text #1
  107. ID                                       : 3
  108. Format                                   : UTF-8
  109. Codec ID                                 : S_TEXT/UTF8
  110. Codec ID/Info                            : UTF-8 Plain Text
  111. Duration                                 : 1 h 50 min
  112. Bit rate                                 : 45 b/s
  113. Count of elements                        : 956
  114. Stream size                              : 36.6 KiB (0%)
  115. Title                                    : Stripped SRT
  116. Language                                 : English
  117. Default                                  : No
  118. Forced                                   : No

  119. Text #2
  120. ID                                       : 4
  121. Format                                   : UTF-8
  122. Codec ID                                 : S_TEXT/UTF8
  123. Codec ID/Info                            : UTF-8 Plain Text
  124. Duration                                 : 1 h 50 min
  125. Bit rate                                 : 47 b/s
  126. Count of elements                        : 1021
  127. Stream size                              : 38.1 KiB (0%)
  128. Title                                    : SDH SRT
  129. Language                                 : English
  130. Default                                  : No
  131. Forced                                   : No

  132. Text #3
  133. ID                                       : 5
  134. Format                                   : PGS
  135. Muxing mode                              : zlib
  136. Codec ID                                 : S_HDMV/PGS
  137. Codec ID/Info                            : Picture based subtitle format used on BDs/HD-DVDs
  138. Duration                                 : 1 h 50 min
  139. Bit rate                                 : 28.7 kb/s
  140. Count of elements                        : 2042
  141. Stream size                              : 22.7 MiB (0%)
  142. Title                                    : English SDH
  143. Language                                 : English
  144. Default                                  : No
  145. Forced                                   : No

  146. Text #4
  147. ID                                       : 6
  148. Format                                   : PGS
  149. Muxing mode                              : zlib
  150. Codec ID                                 : S_HDMV/PGS
  151. Codec ID/Info                            : Picture based subtitle format used on BDs/HD-DVDs
  152. Duration                                 : 1 h 47 min
  153. Bit rate                                 : 57.5 kb/s
  154. Count of elements                        : 3186
  155. Stream size                              : 44.4 MiB (0%)
  156. Title                                    : Commentary by director Mike Hodges
  157. Language                                 : English
  158. Default                                  : No
  159. Forced                                   : No

  160. Text #5
  161. ID                                       : 7
  162. Format                                   : PGS
  163. Muxing mode                              : zlib
  164. Codec ID                                 : S_HDMV/PGS
  165. Codec ID/Info                            : Picture based subtitle format used on BDs/HD-DVDs
  166. Duration                                 : 1 h 49 min
  167. Bit rate                                 : 47.2 kb/s
  168. Count of elements                        : 3352
  169. Stream size                              : 37.1 MiB (0%)
  170. Title                                    : Commentary by actor Brian Blessed
  171. Language                                 : English
  172. Default                                  : No
  173. Forced                                   : No

  174. Text #6
  175. ID                                       : 8
  176. Format                                   : PGS
  177. Muxing mode                              : zlib
  178. Codec ID                                 : S_HDMV/PGS
  179. Codec ID/Info                            : Picture based subtitle format used on BDs/HD-DVDs
  180. Duration                                 : 1 h 50 min
  181. Bit rate                                 : 24.4 kb/s
  182. Count of elements                        : 2202
  183. Stream size                              : 19.3 MiB (0%)
  184. Title                                    : French
  185. Language                                 : French
  186. Default                                  : No
  187. Forced                                   : No

  188. Text #7
  189. ID                                       : 9
  190. Format                                   : PGS
  191. Muxing mode                              : zlib
  192. Codec ID                                 : S_HDMV/PGS
  193. Codec ID/Info                            : Picture based subtitle format used on BDs/HD-DVDs
  194. Duration                                 : 1 h 50 min
  195. Bit rate                                 : 38.6 kb/s
  196. Count of elements                        : 3344
  197. Stream size                              : 30.6 MiB (0%)
  198. Title                                    : Commentary by director Mike Hodges
  199. Language                                 : French
  200. Default                                  : No
  201. Forced                                   : No

  202. Text #8
  203. ID                                       : 10
  204. Format                                   : PGS
  205. Muxing mode                              : zlib
  206. Codec ID                                 : S_HDMV/PGS
  207. Codec ID/Info                            : Picture based subtitle format used on BDs/HD-DVDs
  208. Duration                                 : 1 h 51 min
  209. Bit rate                                 : 41.9 kb/s
  210. Count of elements                        : 3365
  211. Stream size                              : 33.3 MiB (0%)
  212. Title                                    : Commentary by actor Brian Blessed
  213. Language                                 : French
  214. Default                                  : No
  215. Forced                                   : No

  216. Text #9
  217. ID                                       : 11
  218. Format                                   : PGS
  219. Muxing mode                              : zlib
  220. Codec ID                                 : S_HDMV/PGS
  221. Codec ID/Info                            : Picture based subtitle format used on BDs/HD-DVDs
  222. Duration                                 : 1 h 47 min
  223. Bit rate                                 : 25.0 kb/s
  224. Count of elements                        : 1632
  225. Stream size                              : 19.1 MiB (0%)
  226. Title                                    : German
  227. Language                                 : German
  228. Default                                  : No
  229. Forced                                   : No

  230. Text #10
  231. ID                                       : 12
  232. Format                                   : PGS
  233. Muxing mode                              : zlib
  234. Codec ID                                 : S_HDMV/PGS
  235. Codec ID/Info                            : Picture based subtitle format used on BDs/HD-DVDs
  236. Duration                                 : 1 h 47 min
  237. Bit rate                                 : 46.4 kb/s
  238. Count of elements                        : 2806
  239. Stream size                              : 35.8 MiB (0%)
  240. Title                                    : Commentary by director Mike Hodges
  241. Language                                 : German
  242. Default                                  : No
  243. Forced                                   : No

  244. Text #11
  245. ID                                       : 13
  246. Format                                   : PGS
  247. Muxing mode                              : zlib
  248. Codec ID                                 : S_HDMV/PGS
  249. Codec ID/Info                            : Picture based subtitle format used on BDs/HD-DVDs
  250. Duration                                 : 1 h 49 min
  251. Bit rate                                 : 51.1 kb/s
  252. Count of elements                        : 3370
  253. Stream size                              : 40.2 MiB (0%)
  254. Title                                    : Commentary by actor Brian Blessed
  255. Language                                 : German
  256. Default                                  : No
  257. Forced                                   : No

  258. Menu
  259. 00:00:00.000                             : en:Chapter 01
  260. 00:07:47.875                             : en:Chapter 02
  261. 00:18:23.208                             : en:Chapter 03
  262. 00:32:12.417                             : en:Chapter 04
  263. 00:37:45.917                             : en:Chapter 05
  264. 00:44:12.000                             : en:Chapter 06
  265. 00:54:21.000                             : en:Chapter 07
  266. 01:03:24.042                             : en:Chapter 08
  267. 01:10:39.042                             : en:Chapter 09
  268. 01:23:22.917                             : en:Chapter 10
  269. 01:35:01.417                             : en:Chapter 11
  270. 01:42:05.917                             : en:Chapter 12
复制代码



                                       
                                       

                                       
                                       
                                       




回复

使用道具 举报

懒得打字嘛,点击右侧快捷回复 【右侧内容,后台自定义】
您需要登录后才可以回帖 登录 | 立即加入

本版积分规则

Archiver|小黑屋| 蓝光电影网 |网站地图

Copyright © 2021 Comsenz Inc. Powered by 蓝光电影网

蓝光电影网

本站内容由用户自主分享和转载自互联网,转载目的在于传递更多信息,并不代表本网赞同其观点和对其真实性负责。

如有侵权、违反国家法律政策行为,请联系我们,我们会第一时间及时清除和处理!

举报反馈邮箱:[email protected]

快速回复 返回顶部 返回列表