找回密码

蓝光电影网

查看: 43|回复: 0

[科幻] 2016:夜之尽头 Hell.2011.GERMAN.1080p.BluRay.x264.DTS-WiKi 7.96GB

[复制链接]
蓝光币
426
发表于 2020-11-10 09:46:09 | 显示全部楼层 |阅读模式


◎译  名 2016:夜之绝顶/Hell/天堂
◎片  名 Hell
◎年  代 2011
◎产  地 德国
◎类  别 科幻
◎语  言 德语
◎上映日期 2011-09-22(德国)
◎IMDb评分  5.8/10 from 11542 users
◎IMDb链接  https://www.imdb.com/title/tt1643222/
◎豆瓣评分 5.4/10 from 1132 users
◎豆瓣链接 https://movie.douban.com/subject/4847685/
◎片  长 89分钟
◎导  演 蒂姆·菲尔巴姆 Tim Fehlbaum
◎编  剧 蒂姆·菲尔巴姆 Tim Fehlbaum
◎主  演 汉娜·赫茨施普龙 Hannah Herzsprung
       斯坦奇·艾塞克 Stipe Erceg
       安吉拉·温科勒 Angela Winkler
       拉斯·艾丁格 Lars Eidinger
       丽莎·维卡里 Lisa Vicari
       迈克尔·克兰茨 Michael Kranz
       克里斯托夫·高格勒 Christoph Gaugler
◎标  签 科幻 | 德国 | 灾难 | 惊悚 | 人性 | 德国电影 | 2011 | 末日
◎简  介


  在不远的未来,人们熟知的地球已经不复存在。太阳挂在天上用不成思议的热度炙烤着地球已经整整四年时候了。在这类热度的摧残下,地球分红了两块——一块大水肆虐,一块干旱非常。由于大饥荒,人类到了接近灭绝的边沿,少数幸存者靠着残剩的事物和水过活。有传闻说,在一些山区,这类情况有所改良,很明显,那边鄙人雨。
  
  玛娜和妹妹莱奥尼想尝试进山碰试试看,为了能成行,她们找来了菲利普。买卖很简单,玛娜用身材换食品战争安。半路上,菲利普的车坏了,而且汽油也用尽了。因而他们找到了一个烧毁的加油站,希望能在修睦车并找到点补给。在偶遇了一些饿得半死的家伙,而且莱奥尼被劫持为人知以后,菲利普找到了一个叫做汤姆的人,汤姆能把他们的车修睦并带他们上山。菲利普赞成和汤姆一路起头旅途——虽然同业的姑娘都不是很情愿。
  
  究竟证实,这一路并不服坦,而且他们的补给一向在稀里糊涂地削减。几天的相处以后,玛娜感觉汤姆是一个比菲利普更加牢靠的朋友。可是无情的自然也总会令他堕入僵局和困窘。渐渐地,玛娜发现偷他们补给的人不但仅是对食品和水感爱好,它更大的爱好还在于她本人。可是,假如她希望看到自己妹妹还在世,她就一定要克服自己的恐惧,在没有菲利普的情况下,单独一人面临这太阳的炙热以及抢匪的绑架与威胁。
  
  一个庞大的应战正在渐渐靠近——这是玛娜连做梦都没法料想到的庞大的应战……
◎获奖情况
  第62届德国电影奖 ?(2012)
  最好影片金奖(提名) GabrieleWalther?/?ThomasW?bke
  最好打扮设想(提名) LeonieLeuenberger
  最好美术设想(提名) HeikeLange
  最好音效(提名) HugoPoletti?/?HubertBartholomae
  最好配乐 LorenzDangel
  最好化装(提名) ChristinaBaier
  
  第16届富川国际奇异电影节 ?(2012)
  富川挑选奖(长片)最好影片(提名) 蒂姆·菲尔巴姆
  1. Video
  2. ID                                       : 1
  3. Format                                   : AVC
  4. Format/Info                              : Advanced Video Codec
  5. Format profile                           : [email protected]
  6. Format settings                          : CABAC / 4 Ref Frames
  7. Format settings, CABAC                   : Yes
  8. Format settings, Reference frames        : 4 frames
  9. Codec ID                                 : V_MPEG4/ISO/AVC
  10. Duration                                 : 1 h 29 min
  11. Bit rate                                 : 11.2 Mb/s
  12. Width                                    : 1 920 pixels
  13. Height                                   : 816 pixels
  14. Display aspect ratio                     : 2.35:1
  15. Frame rate mode                          : Constant
  16. Frame rate                               : 23.976 (24000/1001/189150) FPS
  17. Color space                              : YUV
  18. Chroma subsampling                       : 4:2:0
  19. Bit depth                                : 8 bits
  20. Scan type                                : Progressive
  21. Bits/(Pixel*Frame)                       : 0.299
  22. Stream size                              : 7.01 GiB (88%)
  23. Writing library                          : x264 core 122 r2184 5c85e0a
  24. Encoding settings                        : cabac=1 / ref=4 / deblock=1:-3:-3 / analyse=0x3:0x133 / me=umh / subme=11 / psy=1 / psy_rd=1.05:0.05 / mixed_ref=1 / me_range=64 / chroma_me=1 / trellis=2 / 8x8dct=1 / cqm=0 / deadzone=21,11 / fast_pskip=0 / chroma_qp_offset=-3 / threads=12 / sliced_threads=0 / nr=0 / decimate=1 / interlaced=0 / bluray_compat=0 / constrained_intra=0 / bframes=8 / b_pyramid=2 / b_adapt=2 / b_bias=0 / direct=3 / weightb=1 / open_gop=0 / weightp=2 / keyint=250 / keyint_min=23 / scenecut=40 / intra_refresh=0 / rc_lookahead=250 / rc=2pass / mbtree=1 / bitrate=11226 / ratetol=1.0 / qcomp=0.60 / qpmin=0 / qpmax=69 / qpstep=4 / cplxblur=20.0 / qblur=0.5 / vbv_maxrate=40000 / vbv_bufsize=30000 / nal_hrd=none / ip_ratio=1.40 / aq=1:0.90
  25. Language                                 : German
  26. Default                                  : Yes
  27. Forced                                   : No

  28. Audio
  29. ID                                       : 2
  30. Format                                   : DTS
  31. Format/Info                              : Digital Theater Systems
  32. Codec ID                                 : A_DTS
  33. Duration                                 : 1 h 29 min
  34. Bit rate mode                            : Constant
  35. Bit rate                                 : 1 509 kb/s
  36. Channel(s)                               : 6 channels
  37. Channel layout                           : C L R Ls Rs LFE
  38. Sampling rate                            : 48.0 kHz
  39. Frame rate                               : 93.750 FPS (512 SPF)
  40. Bit depth                                : 16 bits
  41. Compression mode                         : Lossy
  42. Stream size                              : 966 MiB (12%)
  43. Language                                 : German
  44. Default                                  : Yes
  45. Forced                                   : No

  46. Text
  47. ID                                       : 3
  48. Format                                   : UTF-8
  49. Codec ID                                 : S_TEXT/UTF8
  50. Codec ID/Info                            : UTF-8 Plain Text
  51. Duration                                 : 1 h 28 min
  52. Bit rate                                 : 17 b/s
  53. Count of elements                        : 433
  54. Stream size                              : 11.6 KiB (0%)
  55. Language                                 : English
  56. Default                                  : Yes
  57. Forced                                   : Yes
复制代码






                                       
                                       

                                       
                                       
                                       




回复

使用道具 举报

懒得打字嘛,点击右侧快捷回复 【右侧内容,后台自定义】
您需要登录后才可以回帖 登录 | 立即加入

本版积分规则

Archiver|小黑屋| 蓝光电影网 |网站地图

Copyright © 2021 Comsenz Inc. Powered by 蓝光电影网

蓝光电影网

本站内容由用户自主分享和转载自互联网,转载目的在于传递更多信息,并不代表本网赞同其观点和对其真实性负责。

如有侵权、违反国家法律政策行为,请联系我们,我们会第一时间及时清除和处理!

举报反馈邮箱:kf4k[email protected]

快速回复 返回顶部 返回列表