找回密码

蓝光电影网

查看: 14|回复: 0

[动作] 我不好惹/贝基:战斗女孩 Becky.2020.720p.BluRay.x264-WUTANG 2.53GB

[复制链接]
蓝光币
386
发表于 2020-7-31 08:45:10 | 显示全部楼层 |阅读模式


◎译  名 我欠好惹 / 贝基:战役女孩
◎片  名 Becky
◎年  代 2020
◎产  地 美国
◎类  别 行动 / 惊悚
◎语  言 英语
◎上映日期 2020-06-05(美国)
◎IMDb评分  5.7/10 from 5282 users
◎IMDb链接  https://www.imdb.com/title/tt10314450
◎豆瓣评分 5.4/10 from 1297 users
◎豆瓣链接 https://movie.douban.com/subject/34818507/
◎片  长 100分钟
◎导  演 乔纳森·米洛特 Jonathan Milott / 加里·穆利昂 Cary Murnion
◎编  剧 Nick Morris / Lane Skye / Ruckus Skye
◎主  演 露露·威尔逊 Lulu Wilson
       乔尔·麦克哈尔 Joel McHale
       凯文·詹姆斯 Kevin James
       阿曼达·布鲁盖尔 Amanda Brugel
       罗伯特·梅耶 Robert Maillet
       瑞安·麦克唐纳德 Ryan McDonald
       盖奇·格雷厄姆·阿布斯诺特 Gage Graham-Arbuthnot
       约翰·D·希克曼 John D. Hickman
       Chandra Michaels
       James McDougall
       Isaiah Rockcliffe
       Mike Dara
       Andrew Siwik
       Charles Boyland
       Markus Radan

◎标  签 血腥 | 复仇 | 犯罪 | 美国 | 惊悚 | 2020 | 行动 | 美国电影
◎简  介

  
  13岁小女孩反杀恶人。百口来到林中小屋想改良家庭关系,被逃狱犯人上门找麻烦。而好人虽残暴,却被女孩Becky经验……
  1. Video
  2. ID                                       : 1
  3. Format                                   : AVC
  4. Format/Info                              : Advanced Video Codec
  5. Format profile                           : [email protected]
  6. Format settings                          : CABAC / 8 Ref Frames
  7. Format settings, CABAC                   : Yes
  8. Format settings, Reference frames        : 8 frames
  9. Codec ID                                 : V_MPEG4/ISO/AVC
  10. Duration                                 : 1 h 33 min
  11. Bit rate                                 : 3 429 kb/s
  12. Width                                    : 1 280 pixels
  13. Height                                   : 536 pixels
  14. Display aspect ratio                     : 2.40:1
  15. Frame rate mode                          : Constant
  16. Frame rate                               : 23.976 (24000/1001/189150) FPS
  17. Color space                              : YUV
  18. Chroma subsampling                       : 4:2:0
  19. Bit depth                                : 8 bits
  20. Scan type                                : Progressive
  21. Bits/(Pixel*Frame)                       : 0.208
  22. Stream size                              : 2.23 GiB (88%)
  23. Writing library                          : x264 core 161 r3018 db0d417
  24. Encoding settings                        : cabac=1 / ref=8 / deblock=1:-3:-3 / analyse=0x3:0x133 / me=umh / subme=9 / psy=1 / psy_rd=1.00:0.00 / mixed_ref=1 / me_range=32 / chroma_me=1 / trellis=2 / 8x8dct=1 / cqm=0 / deadzone=21,11 / fast_pskip=0 / chroma_qp_offset=-2 / threads=17 / lookahead_threads=2 / sliced_threads=0 / nr=0 / decimate=0 / interlaced=0 / bluray_compat=0 / constrained_intra=0 / bframes=9 / b_pyramid=2 / b_adapt=2 / b_bias=0 / direct=3 / weightb=1 / open_gop=0 / weightp=2 / keyint=250 / keyint_min=23 / scenecut=40 / intra_refresh=0 / rc=crf / mbtree=0 / crf=16.5 / qcomp=0.60 / qpmin=0 / qpmax=69 / qpstep=4 / ip_ratio=1.40 / pb_ratio=1.30 / aq=3:0.88
  25. Default                                  : Yes
  26. Forced                                   : No
  27. Color range                              : Limited
  28. Matrix coefficients                      : BT.709

  29. Audio
  30. ID                                       : 2
  31. Format                                   : AC-3
  32. Format/Info                              : Audio Coding 3
  33. Commercial name                          : Dolby Digital
  34. Codec ID                                 : A_AC3
  35. Duration                                 : 1 h 33 min
  36. Bit rate mode                            : Constant
  37. Bit rate                                 : 448 kb/s
  38. Channel(s)                               : 6 channels
  39. Channel layout                           : L R C LFE Ls Rs
  40. Sampling rate                            : 48.0 kHz
  41. Frame rate                               : 31.250 FPS (1536 SPF)
  42. Bit depth                                : 16 bits
  43. Compression mode                         : Lossy
  44. Stream size                              : 298 MiB (12%)
  45. Title                                    : English
  46. Language                                 : English
  47. Service kind                             : Complete Main
  48. Default                                  : No
  49. Forced                                   : No

  50. Text
  51. ID                                       : 3
  52. Format                                   : PGS
  53. Muxing mode                              : zlib
  54. Codec ID                                 : S_HDMV/PGS
  55. Codec ID/Info                            : Picture based subtitle format used on BDs/HD-DVDs
  56. Duration                                 : 1 h 33 min
  57. Bit rate                                 : 18.2 kb/s
  58. Count of elements                        : 2445
  59. Stream size                              : 12.1 MiB (0%)
  60. Title                                    : English SDH
  61. Language                                 : English
  62. Default                                  : No
  63. Forced                                   : No

  64. Menu
  65. 00:00:00.000                             : en:Chapter 01
  66. 00:05:43.844                             : en:Chapter 02
  67. 00:10:33.675                             : en:Chapter 03
  68. 00:17:48.818                             : en:Chapter 04
  69. 00:23:46.842                             : en:Chapter 05
  70. 00:30:08.390                             : en:Chapter 06
  71. 00:35:50.857                             : en:Chapter 07
  72. 00:42:34.677                             : en:Chapter 08
  73. 00:49:33.929                             : en:Chapter 09
  74. 00:55:20.484                             : en:Chapter 10
  75. 01:00:41.721                             : en:Chapter 11
  76. 01:06:40.914                             : en:Chapter 12
  77. 01:11:17.273                             : en:Chapter 13
  78. 01:15:17.263                             : en:Chapter 14
  79. 01:19:13.165                             : en:Chapter 15
  80. 01:24:17.344                             : en:Chapter 16
复制代码




                                       
                                       

                                       
                                       
                                       




回复

使用道具 举报

懒得打字嘛,点击右侧快捷回复 【右侧内容,后台自定义】
您需要登录后才可以回帖 登录 | 立即加入

本版积分规则

Archiver|小黑屋| 蓝光电影网 |网站地图

Copyright © 2021 Comsenz Inc. Powered by 蓝光电影网

蓝光电影网

本站内容由用户自主分享和转载自互联网,转载目的在于传递更多信息,并不代表本网赞同其观点和对其真实性负责。

如有侵权、违反国家法律政策行为,请联系我们,我们会第一时间及时清除和处理!

举报反馈邮箱:[email protected]

快速回复 返回顶部 返回列表