找回密码

蓝光电影网

查看: 39|回复: 0

[惊悚] 开罗谍报战 Five.Graves.To.Cairo.1943.REMASTERED.720p.BluRay.x264-USURY 6.47GB

[复制链接]
蓝光币
426
发表于 2021-7-13 20:13:58 | 显示全部楼层 |阅读模式


◎译  名 开罗情报战/5 Graves to Cairo/五墓行动/大北罗美尔(港)
◎片  名 Five Graves to Cairo
◎年  代 1943
◎产  地 美国
◎类  别 惊悚 / 战争
◎语  言 英语,德语
◎上映日期 1943-05-04
◎豆瓣评分 6.9/10 from 414 users
◎豆瓣链接 https://movie.douban.com/subject/2055969/
◎片  长 96 分钟
◎导  演 比利·怀德 Billy Wilder
◎编  剧 查尔斯·布拉克特 Charles Brackett / 比利·怀德 Billy Wilder / 拉约什·比罗 Lajos Biró
◎主  演 法兰奇·汤恩 Franchot Tone
       安妮·巴克斯特 Anne Baxter
       阿基姆·坦米罗夫 Akim Tamiroff
       埃里克·冯·施特罗海姆 Erich von Stroheim
       彼得·范·埃克 Peter van Eyck
       福图尼奥·博纳诺瓦 Fortunio Bonanova
       Sam Waagenaar Sam Waagenaar
       Otto Reichow Otto Reichow
       康斯坦丁肖恩 Konstantin Shayne
       Hans Moebus Hans Moebus
       伊恩·基思 Ian Keith
       Frederick Giermann Frederick Giermann
       Bud Geary Bud Geary
       Leslie Denison Leslie Denison
       Roger Creed Roger Creed
       Philip Ahlm Philip Ahlm
       迈尔斯·曼德 Miles Mander
◎标  签 美国 | 比利·怀尔德 | BillyWilder | 战争 | 1943 | 二战 | 特务 | 美国电影
◎简  介


  1941年的北非疆场,英德两军苦战正酣,英军节节溃退。布兰保下士(Franchot Tone 饰)被坦克遗落,蹒跚进入埃及人法瑞德的女王酒店,而几近同时,德意联军批示部进驻此处。布兰保乔装酒店办事生达沃斯伺机逃走,意外发现隆美尔元帅居然近在天涯,而他所假扮的达沃斯更是德军特务,布兰保决议留下以便密查德军补给计划的“五墓行动”详情,同时也对酒店的法国女招待姆丝(Anne Baxter 饰)发生情愫。
  
  未几女王酒店又迎来了一批英军俘虏,布兰保与对方获得联系并终极打探到“五墓行动”的真相,但是一向对姆丝有所诡计的德军军官施威格(Peter van Eyck 饰)对他发生了思疑,布兰保情报在手,却因姆丝要面临国家命运与小我感情的繁重考验。
◎获奖情况
  第16届奥斯卡金像奖 ?(1944)
  黑白片最好摄影(提名) 约翰·F·塞茨
  最好剪辑(提名) 多恩·哈里森
  黑白片最好艺术指导和室内布景(提名) 汉斯·德雷尔?/?伯特拉姆·C·格兰杰?/?恩斯特·费格泰
  1. Video
  2. ID                                       : 1
  3. Format                                   : AVC
  4. Format/Info                              : Advanced Video Codec
  5. Format profile                           : [email protected]
  6. Format settings                          : CABAC / 11 Ref Frames
  7. Format settings, CABAC                   : Yes
  8. Format settings, Reference frames        : 11 frames
  9. Codec ID                                 : V_MPEG4/ISO/AVC
  10. Duration                                 : 1 h 36 min
  11. Bit rate                                 : 9 220 kb/s
  12. Width                                    : 986 pixels
  13. Height                                   : 720 pixels
  14. Display aspect ratio                     : 4:3
  15. Frame rate mode                          : Constant
  16. Frame rate                               : 23.976 (24000/1001/189150) FPS
  17. Color space                              : YUV
  18. Chroma subsampling                       : 4:2:0
  19. Bit depth                                : 8 bits
  20. Scan type                                : Progressive
  21. Bits/(Pixel*Frame)                       : 0.542
  22. Stream size                              : 6.21 GiB (96%)
  23. Writing library                          : x264 core 164 r3065 ae03d92
  24. Encoding settings                        : cabac=1 / ref=11 / deblock=1:-3:-3 / analyse=0x3:0x133 / me=umh / subme=10 / psy=1 / psy_rd=1.00:0.15 / mixed_ref=1 / me_range=24 / chroma_me=1 / trellis=2 / 8x8dct=1 / cqm=0 / deadzone=21,11 / fast_pskip=1 / chroma_qp_offset=-3 / threads=18 / lookahead_threads=3 / sliced_threads=0 / nr=0 / decimate=1 / interlaced=0 / bluray_compat=0 / constrained_intra=0 / bframes=8 / b_pyramid=2 / b_adapt=2 / b_bias=0 / direct=3 / weightb=1 / open_gop=0 / weightp=2 / keyint=250 / keyint_min=23 / scenecut=40 / intra_refresh=0 / rc_lookahead=60 / rc=crf / mbtree=1 / crf=17.0 / qcomp=0.60 / qpmin=0 / qpmax=69 / qpstep=4 / ip_ratio=1.40 / aq=3:0.50
  25. Language                                 : English
  26. Default                                  : Yes
  27. Forced                                   : No

  28. Audio #1
  29. ID                                       : 2
  30. Format                                   : FLAC
  31. Format/Info                              : Free Lossless Audio Codec
  32. Codec ID                                 : A_FLAC
  33. Duration                                 : 1 h 36 min
  34. Bit rate mode                            : Variable
  35. Bit rate                                 : 272 kb/s
  36. Channel(s)                               : 2 channels
  37. Channel layout                           : L R
  38. Sampling rate                            : 48.0 kHz
  39. Frame rate                               : 11.719 FPS (4096 SPF)
  40. Bit depth                                : 16 bits
  41. Compression mode                         : Lossless
  42. Stream size                              : 187 MiB (3%)
  43. Writing library                          : libFLAC 1.2.1 (UTC 2007-09-17)
  44. Language                                 : English
  45. Default                                  : Yes
  46. Forced                                   : No

  47. Audio #2
  48. ID                                       : 3
  49. Format                                   : AAC LC
  50. Format/Info                              : Advanced Audio Codec Low Complexity
  51. Codec ID                                 : A_AAC-2
  52. Duration                                 : 1 h 36 min
  53. Bit rate                                 : 85.6 kb/s
  54. Channel(s)                               : 2 channels
  55. Channel layout                           : L R
  56. Sampling rate                            : 48.0 kHz
  57. Frame rate                               : 46.875 FPS (1024 SPF)
  58. Compression mode                         : Lossy
  59. Delay relative to video                  : 9 ms
  60. Stream size                              : 59.1 MiB (1%)
  61. Title                                    : English Commentary by Joseph McBride
  62. Language                                 : English
  63. Default                                  : No
  64. Forced                                   : No

  65. Text #1
  66. ID                                       : 4
  67. Format                                   : UTF-8
  68. Codec ID                                 : S_TEXT/UTF8
  69. Codec ID/Info                            : UTF-8 Plain Text
  70. Duration                                 : 1 h 33 min
  71. Bit rate                                 : 67 b/s
  72. Count of elements                        : 1311
  73. Stream size                              : 46.4 KiB (0%)
  74. Title                                    : English
  75. Language                                 : English
  76. Default                                  : No
  77. Forced                                   : No

  78. Text #2
  79. ID                                       : 5
  80. Format                                   : PGS
  81. Muxing mode                              : zlib
  82. Codec ID                                 : S_HDMV/PGS
  83. Codec ID/Info                            : Picture based subtitle format used on BDs/HD-DVDs
  84. Duration                                 : 1 h 33 min
  85. Bit rate                                 : 15.9 kb/s
  86. Count of elements                        : 1591
  87. Stream size                              : 10.6 MiB (0%)
  88. Title                                    : English
  89. Language                                 : English
  90. Default                                  : No
  91. Forced                                   : No

  92. Menu
  93. 00:00:00.000                             : en:00:00:00.000
  94. 00:09:55.883                             : en:00:09:55.883
  95. 00:19:36.254                             : en:00:19:36.254
  96. 00:28:06.222                             : en:00:28:06.222
  97. 00:39:29.947                             : en:00:39:29.947
  98. 00:50:42.535                             : en:00:50:42.535
  99. 01:00:15.608                             : en:01:00:15.608
  100. 01:11:33.827                             : en:01:11:33.827
  101. 01:28:35.389                             : en:01:28:35.389
复制代码





                                       
                                       

                                       
                                       
                                       




回复

使用道具 举报

懒得打字嘛,点击右侧快捷回复 【右侧内容,后台自定义】
您需要登录后才可以回帖 登录 | 立即加入

本版积分规则

Archiver|小黑屋| 蓝光电影网 |网站地图

Copyright © 2021 Comsenz Inc. Powered by 蓝光电影网

蓝光电影网

本站内容由用户自主分享和转载自互联网,转载目的在于传递更多信息,并不代表本网赞同其观点和对其真实性负责。

如有侵权、违反国家法律政策行为,请联系我们,我们会第一时间及时清除和处理!

举报反馈邮箱:[email protected]

快速回复 返回顶部 返回列表