找回密码

蓝光电影网

查看: 12|回复: 0

[喜剧] 虎口脱险 Dont.Look.Now.Were.Being.Shot.At.1966.1080p.BluRay.x264-USURY 9.96GB

[复制链接]
蓝光币
426
发表于 2020-8-18 12:01:33 | 显示全部楼层 |阅读模式


◎译  名 虎口脱险 / Don't Look Now... We're Being Shot At! / 大進擊(台) / 横冲直撞出重围(港)
◎片  名 La grande vadrouille
◎年  代 1966
◎产  地 法国 / 英国
◎类  别 笑剧 / 战争
◎语  言 法语 / 英语 / 德语
◎上映日期 1966-12-08(法国)
◎IMDb评分  8.0/10 from 15473 users
◎IMDb链接  https://www.imdb.com/title/tt0060474
◎豆瓣评分 8.9/10 from 173747 users
◎豆瓣链接 https://movie.douban.com/subject/1296909/
◎片  长 132分钟
◎导  演 杰拉尔·乌里 Gérard Oury
◎编  剧 杰拉尔·乌里 Gérard Oury / 达妮埃尔·汤普森 Danièle Thompson / Marcel Jullian / Georges Tabet / André Tabet
◎主  演 路易·德·菲耐斯 Louis de Funès
       布尔维尔 Bourvil
       克劳迪奥·布鲁克 Claudio Brook
       安德丽·帕里西 Andréa Parisy
       科莱特·布罗塞 Colette Brosset
       Mike Marshall
       Mary Marquet
       Pierre Bertin
       Benno Sterzenbach
       玛丽·杜布瓦 Marie Dubois
       特里-托马斯 Terry-Thomas
       西戈德·拉普 Sieghardt Rupp
       Reinhard Kolldehoff
       Helmuth Schneider
       Paul Préboist
       Hans Meyer
       Guy Grosso
       Michel Modo
       Peter Jacob
       Rudy Lenoir
       No?l Darzal
       Pierre Roussel
       Pierre Bastien
       Jacques Sablon
       Mag-Avril
       Jacques Bodoin
       Gabriel Gobin
       Paul Mercey
       Henri Génès

◎标  签 笑剧 | 法国 | 典范 | 二战 | 搞笑 | 法国电影 | 战争 | 虎口脱险
◎简  介

  
  二战时代,英国一架飞机在履行轰炸使命中,被德军击中,几名英国兵士被迫跳伞逃生。他们约幸亏土耳其浴室碰头,并用此次行动的代号“鸳鸯茶”作为讨论记号。
  他们别离下降在法国巴黎德军占据区的分歧地址。大胡子中队长雷金纳德被动物园治理员所救。而别的两名流兵,也别离在油漆匠奥古斯德 (布尔维尔 饰)和乐队批示斯塔尼斯拉斯(路易·德·费内斯 饰)的帮助下遮蔽好了。即使德军展开了全城的搜索,油漆匠、批示和中队长还是在浴室顺遂地会面,几经辗转,英国兵士终究接上了头。几个原本并不熟悉的人,就这样结成了生死同盟,与仇敌展开了斗智斗勇的生死游戏。同时,也闹出了很多温情的笑话。他们用微薄的气力匹敌严酷德军,险相迭生,滑稽搞笑,为了逃出虎口,配合战役。
  1. Video
  2. ID                                       : 1
  3. Format                                   : AVC
  4. Format/Info                              : Advanced Video Codec
  5. Format profile                           : [email protected]
  6. Format settings                          : CABAC / 5 Ref Frames
  7. Format settings, CABAC                   : Yes
  8. Format settings, Reference frames        : 5 frames
  9. Codec ID                                 : V_MPEG4/ISO/AVC
  10. Duration                                 : 2 h 4 min
  11. Bit rate                                 : 10.6 Mb/s
  12. Width                                    : 1 920 pixels
  13. Height                                   : 768 pixels
  14. Display aspect ratio                     : 2.500
  15. Frame rate mode                          : Constant
  16. Frame rate                               : 24.000 FPS
  17. Color space                              : YUV
  18. Chroma subsampling                       : 4:2:0
  19. Bit depth                                : 8 bits
  20. Scan type                                : Progressive
  21. Bits/(Pixel*Frame)                       : 0.298
  22. Stream size                              : 9.16 GiB (93%)
  23. Writing library                          : x264 core 148 r2705 3f5ed56
  24. Encoding settings                        : cabac=1 / ref=5 / deblock=1:0:0 / analyse=0x3:0x133 / me=umh / subme=9 / psy=1 / psy_rd=1.00:0.00 / mixed_ref=1 / me_range=16 / chroma_me=1 / trellis=1 / 8x8dct=1 / cqm=0 / deadzone=21,11 / fast_pskip=0 / chroma_qp_offset=-2 / threads=18 / lookahead_threads=1 / sliced_threads=0 / nr=0 / decimate=1 / interlaced=0 / bluray_compat=0 / constrained_intra=0 / bframes=3 / b_pyramid=2 / b_adapt=2 / b_bias=0 / direct=3 / weightb=1 / open_gop=0 / weightp=2 / keyint=250 / keyint_min=24 / scenecut=40 / intra_refresh=0 / rc_lookahead=50 / rc=2pass / mbtree=1 / bitrate=10552 / ratetol=1.0 / qcomp=0.60 / qpmin=0 / qpmax=69 / qpstep=4 / cplxblur=20.0 / qblur=0.5 / ip_ratio=1.40 / aq=1:1.00
  25. Language                                 : English
  26. Default                                  : Yes
  27. Forced                                   : No

  28. Audio
  29. ID                                       : 2
  30. Format                                   : DTS
  31. Format/Info                              : Digital Theater Systems
  32. Codec ID                                 : A_DTS
  33. Duration                                 : 2 h 4 min
  34. Bit rate mode                            : Constant
  35. Bit rate                                 : 768 kb/s
  36. Channel(s)                               : 2 channels
  37. Channel layout                           : Lt Rt
  38. Sampling rate                            : 48.0 kHz
  39. Frame rate                               : 93.750 FPS (512 SPF)
  40. Bit depth                                : 24 bits
  41. Compression mode                         : Lossy
  42. Stream size                              : 683 MiB (7%)
  43. Language                                 : French
  44. Default                                  : Yes
  45. Forced                                   : No

  46. Text
  47. ID                                       : 3
  48. Format                                   : UTF-8
  49. Codec ID                                 : S_TEXT/UTF8
  50. Codec ID/Info                            : UTF-8 Plain Text
  51. Duration                                 : 2 h 3 min
  52. Bit rate                                 : 20 b/s
  53. Count of elements                        : 852
  54. Stream size                              : 18.6 KiB (0%)
  55. Title                                    : forced
  56. Language                                 : English
  57. Default                                  : Yes
  58. Forced                                   : Yes

  59. Menu
  60. 00:00:00.000                             : en:00:00:00.000
  61. 00:10:25.000                             : en:00:10:25.000
  62. 00:20:03.208                             : en:00:20:03.208
  63. 00:31:49.833                             : en:00:31:49.833
  64. 00:40:11.583                             : en:00:40:11.583
  65. 00:50:46.167                             : en:00:50:46.167
  66. 00:59:48.958                             : en:00:59:48.958
  67. 01:10:54.875                             : en:01:10:54.875
  68. 01:20:26.958                             : en:01:20:26.958
  69. 01:30:56.917                             : en:01:30:56.917
  70. 01:40:02.375                             : en:01:40:02.375
  71. 01:51:08.083                             : en:01:51:08.083
复制代码




                                       
                                       

                                       
                                       
                                       




回复

使用道具 举报

懒得打字嘛,点击右侧快捷回复 【右侧内容,后台自定义】
您需要登录后才可以回帖 登录 | 立即加入

本版积分规则

Archiver|小黑屋| 蓝光电影网 |网站地图

Copyright © 2021 Comsenz Inc. Powered by 蓝光电影网

蓝光电影网

本站内容由用户自主分享和转载自互联网,转载目的在于传递更多信息,并不代表本网赞同其观点和对其真实性负责。

如有侵权、违反国家法律政策行为,请联系我们,我们会第一时间及时清除和处理!

举报反馈邮箱:[email protected]

快速回复 返回顶部 返回列表