找回密码

蓝光电影网

查看: 25|回复: 0

[惊悚] 真假/真实小说 True.Fiction.2019.720p.BluRay.x264-FREEMAN 1.78GB

[复制链接]
蓝光币
386
发表于 2021-6-28 14:45:10 | 显示全部楼层 |阅读模式


◎译  名 真假/实在小说
◎片  名 True Fiction
◎年  代 2018
◎产  地 加拿大
◎类  别 惊悚 / 可骇
◎语  言 英语
◎上映日期 2020-02-21(美国)
◎豆瓣评分 5.0/10 from 136 users
◎豆瓣链接 https://movie.douban.com/subject/30257631/
◎片  长 94分钟
◎主  演 约翰·卡西尼 John Cassini
       朱利安·布莱克·安蒂洛普 Julian Black Antelope
       朱利安·瑞钦斯 Julian Richings
       雷蒙·乔希 Reamonn Joshee
◎标  签 惊悚 | 可骇 | 加拿大 | 密屋 | 2020 | 美国 | 电影 | 加拿大电影
◎简  介


  Avery Malone, a wannabe writer and lonely librarian, gets her big break when she's hand-selected to assist her hero, reclusive author, Caleb Conrad. Whisked away to Caleb's remote estate, Avery is given her one and only task; to participate in a controlled psychological experiment in fear that will serve as the basis for Caleb's next novel.
  1. Video
  2. ID                                       : 1
  3. Format                                   : AVC
  4. Format/Info                              : Advanced Video Codec
  5. Format profile                           : [email protected]
  6. Format settings                          : CABAC / 8 Ref Frames
  7. Format settings, CABAC                   : Yes
  8. Format settings, Reference frames        : 8 frames
  9. Codec ID                                 : V_MPEG4/ISO/AVC
  10. Duration                                 : 1 h 36 min
  11. Bit rate                                 : 1 989 kb/s
  12. Width                                    : 1 280 pixels
  13. Height                                   : 570 pixels
  14. Display aspect ratio                     : 2.25:1
  15. Frame rate mode                          : Constant
  16. Frame rate                               : 23.976 (24000/1001/189150) FPS
  17. Color space                              : YUV
  18. Chroma subsampling                       : 4:2:0
  19. Bit depth                                : 8 bits
  20. Scan type                                : Progressive
  21. Bits/(Pixel*Frame)                       : 0.114
  22. Stream size                              : 1.35 GiB (75%)
  23. Writing library                          : x264 core 163 r3059 b684ebe
  24. Encoding settings                        : cabac=1 / ref=8 / deblock=1:-3:-3 / analyse=0x3:0x133 / me=umh / subme=9 / psy=1 / psy_rd=1.00:0.00 / mixed_ref=1 / me_range=16 / chroma_me=1 / trellis=2 / 8x8dct=1 / cqm=0 / deadzone=21,11 / fast_pskip=1 / chroma_qp_offset=-2 / threads=18 / lookahead_threads=1 / sliced_threads=0 / nr=0 / decimate=1 / interlaced=0 / bluray_compat=0 / constrained_intra=0 / bframes=3 / b_pyramid=2 / b_adapt=2 / b_bias=0 / direct=3 / weightb=1 / open_gop=0 / weightp=2 / keyint=250 / keyint_min=23 / scenecut=40 / intra_refresh=0 / rc_lookahead=60 / rc=crf / mbtree=1 / crf=17.0 / qcomp=0.60 / qpmin=0 / qpmax=69 / qpstep=4 / ip_ratio=1.40 / aq=3:0.80
  25. Language                                 : English
  26. Default                                  : Yes
  27. Forced                                   : No
  28. Color range                              : Limited
  29. Matrix coefficients                      : BT.709

  30. Audio
  31. ID                                       : 2
  32. Format                                   : AC-3
  33. Format/Info                              : Audio Coding 3
  34. Commercial name                          : Dolby Digital
  35. Codec ID                                 : A_AC3
  36. Duration                                 : 1 h 36 min
  37. Bit rate mode                            : Constant
  38. Bit rate                                 : 640 kb/s
  39. Channel(s)                               : 6 channels
  40. Channel layout                           : L R C LFE Ls Rs
  41. Sampling rate                            : 48.0 kHz
  42. Frame rate                               : 31.250 FPS (1536 SPF)
  43. Compression mode                         : Lossy
  44. Stream size                              : 443 MiB (24%)
  45. Title                                    : ac3
  46. Language                                 : English
  47. Service kind                             : Complete Main
  48. Default                                  : Yes
  49. Forced                                   : No

  50. Text
  51. ID                                       : 3
  52. Format                                   : PGS
  53. Muxing mode                              : zlib
  54. Codec ID                                 : S_HDMV/PGS
  55. Codec ID/Info                            : Picture based subtitle format used on BDs/HD-DVDs
  56. Duration                                 : 1 h 32 min
  57. Bit rate                                 : 7 116 b/s
  58. Count of elements                        : 1400
  59. Stream size                              : 4.71 MiB (0%)
  60. Title                                    : sub
  61. Language                                 : German
  62. Default                                  : No
  63. Forced                                   : No

  64. Menu
  65. 00:00:00.000                             : en:00:00:00.000
  66. 00:05:47.389                             : en:00:05:47.389
  67. 00:12:14.484                             : en:00:12:14.484
  68. 00:21:36.212                             : en:00:21:36.212
  69. 00:35:14.738                             : en:00:35:14.738
  70. 00:43:28.606                             : en:00:43:28.606
  71. 00:54:00.237                             : en:00:54:00.237
  72. 00:58:41.935                             : en:00:58:41.935
  73. 01:10:08.579                             : en:01:10:08.579
  74. 01:19:51.161                             : en:01:19:51.161
  75. 01:27:40.130                             : en:01:27:40.130
  76. 01:34:06.516                             : en:01:34:06.516
复制代码





                                       
                                       

                                       
                                       
                                       




回复

使用道具 举报

懒得打字嘛,点击右侧快捷回复 【右侧内容,后台自定义】
您需要登录后才可以回帖 登录 | 立即加入

本版积分规则

Archiver|小黑屋| 蓝光电影网 |网站地图

Copyright © 2021 Comsenz Inc. Powered by 蓝光电影网

蓝光电影网

本站内容由用户自主分享和转载自互联网,转载目的在于传递更多信息,并不代表本网赞同其观点和对其真实性负责。

如有侵权、违反国家法律政策行为,请联系我们,我们会第一时间及时清除和处理!

举报反馈邮箱:[email protected]

快速回复 返回顶部 返回列表