找回密码

蓝光电影网

查看: 11|回复: 0

[动作] 十万火急/龙出生天 Daylight.1996.REMASTERED.1080p.BluRay.x264-GUACAMOLE 17.91GB

[复制链接]
蓝光币
382
发表于 2021-5-15 09:07:10 | 显示全部楼层 |阅读模式


◎译  名 十万急切/龙诞生天
◎片  名 Daylight
◎年  代 1996
◎产  地 美国
◎类  别 行动 / 冒险 / 灾难
◎语  言 英语
◎上映日期 1996-12-06
◎豆瓣评分 7.3/10 from 5317 users
◎豆瓣链接 https://movie.douban.com/subject/1292834/
◎片  长 114分钟
◎导  演 罗伯·科恩 Rob Cohen
◎编  剧 莱斯利·博希姆 Leslie Bohem
◎主  演 西尔维斯特·史泰龙 Sylvester Stallone
       艾米·布伦尼曼 Amy Brenneman
       维果·莫腾森 Viggo Mortensen
       丹·哈达亚 Dan Hedaya
       杰伊·桑德斯 Jay O. Sanders
       凯伦·杨 Karen Young
       克莱尔·布鲁姆 Claire Bloom
       瓦妮莎·贝尔·卡洛威 Vanessa Bell Calloway
       雷诺里·圣地亚哥 Renoly Santiago
       科林·福克斯 Colin Fox
       丹妮尔·哈丽丝 Danielle Harris
       Trina McGee
       塞奇·史泰龙 Sage Stallone
       乔·安德森 Jo Anderson
       马克·罗斯顿 Mark Rolston
       罗丝玛丽·福赛思 Rosemary Forsyth
       王洛勇 Luoyong Wang
       巴瑞·纽曼 Barry Newman
       斯坦·肖 Stan Shaw
       Mark Chadwick
       李·奥克斯 Lee Oakes
       沙基纳·贾弗里 Sakina Jaffrey
       艾伯特·麦克林 Albert Macklin
       约瑟夫·劳格诺 Joseph Ragno
       内斯特·塞拉诺 Nestor Serrano
       约翰·利斯 John Lees
       Stephen James
       伊西斯·马森登 Isis Mussenden
       罗伯·科恩 Rob Cohen
       帕梅拉·佩林 Pamela Perrine
       Dale Resteghini
◎标  签 灾难 | 美国 | 史泰龙 | 行动 | 1996 | 美国电影 | 十万急切 | 冒险
◎简  介


  此日无数来往于曼哈顿与新泽西州的海底地道的美国公众像平常一样在地道内埋怨着交通梗塞,岂料死神正在步步逼近。地道内一辆装满化学物品的卡车意外发生了爆炸,强大的冲击力使得地道坍塌了,收支口都被堵死了。此时,地道内一片火海,满盈着有毒烟雾,河水也在不竭涌进,无数无辜的市民们能做似乎只要等死。
  
  救济队实在早到了,但是地道被封,里面的有毒烟雾肆虐,救济职员迟迟不敢贸然脱手。十万急切之际,出租车司机、前救济队队员骆查(西尔维斯特?史泰龙 Sylvester Stallone 饰)自告奋勇了。他从透风口爬进了地道,他稳定住了地道内众人的情感,率领大师起头了生死流亡。
◎获奖情况
  第69届奥斯卡金像奖 ?(1997)
  最好音效剪辑(提名) 理查德·路易斯·安德森?/?大卫·A·惠特克
  1. Video
  2. ID                                       : 1
  3. Format                                   : AVC
  4. Format/Info                              : Advanced Video Codec
  5. Format profile                           : [email protected]
  6. Format settings                          : CABAC / 4 Ref Frames
  7. Format settings, CABAC                   : Yes
  8. Format settings, Reference frames        : 4 frames
  9. Codec ID                                 : V_MPEG4/ISO/AVC
  10. Duration                                 : 1 h 54 min
  11. Bit rate                                 : 17.4 Mb/s
  12. Width                                    : 1 920 pixels
  13. Height                                   : 1 040 pixels
  14. Display aspect ratio                     : 1.85:1
  15. Frame rate mode                          : Constant
  16. Frame rate                               : 23.976 (24000/1001/189150) FPS
  17. Color space                              : YUV
  18. Chroma subsampling                       : 4:2:0
  19. Bit depth                                : 8 bits
  20. Scan type                                : Progressive
  21. Bits/(Pixel*Frame)                       : 0.363
  22. Stream size                              : 13.9 GiB (78%)
  23. Writing library                          : x264 core 163 r3059 b684ebe
  24. Encoding settings                        : cabac=1 / ref=4 / deblock=1:-3:-3 / analyse=0x3:0x133 / me=umh / subme=9 / psy=1 / psy_rd=1.00:0.00 / mixed_ref=1 / me_range=16 / chroma_me=1 / trellis=2 / 8x8dct=1 / cqm=0 / deadzone=21,11 / fast_pskip=0 / chroma_qp_offset=-2 / threads=24 / lookahead_threads=2 / sliced_threads=0 / nr=0 / decimate=1 / interlaced=0 / bluray_compat=0 / constrained_intra=0 / bframes=3 / b_pyramid=2 / b_adapt=2 / b_bias=0 / direct=3 / weightb=1 / open_gop=0 / weightp=2 / keyint=250 / keyint_min=23 / scenecut=40 / intra_refresh=0 / rc_lookahead=60 / rc=crf / mbtree=1 / crf=19.9 / qcomp=0.60 / qpmin=0 / qpmax=69 / qpstep=4 / ip_ratio=1.40 / aq=3:0.60
  25. Default                                  : Yes
  26. Forced                                   : No
  27. Color range                              : Limited
  28. Matrix coefficients                      : BT.709

  29. Audio #1
  30. ID                                       : 2
  31. Format                                   : MLP FBA 16-ch
  32. Format/Info                              : Meridian Lossless Packing FBA with 16-channel presentation
  33. Commercial name                          : Dolby TrueHD with Dolby Atmos
  34. Codec ID                                 : A_TRUEHD
  35. Duration                                 : 1 h 54 min
  36. Bit rate mode                            : Variable
  37. Bit rate                                 : 4 130 kb/s
  38. Maximum bit rate                         : 6 657 kb/s
  39. Channel(s)                               : 8 channels
  40. Channel layout                           : L R C LFE Ls Rs Lb Rb
  41. Sampling rate                            : 48.0 kHz
  42. Frame rate                               : 1 200.000 FPS (40 SPF)
  43. Compression mode                         : Lossless
  44. Delay relative to video                  : 417 ms
  45. Stream size                              : 3.30 GiB (18%)
  46. Language                                 : English
  47. Default                                  : Yes
  48. Forced                                   : No
  49. Number of dynamic objects                : 13
  50. Bed channel count                        : 1 channel
  51. Bed channel configuration                : LFE

  52. Audio #2
  53. ID                                       : 3
  54. Format                                   : AC-3
  55. Format/Info                              : Audio Coding 3
  56. Commercial name                          : Dolby Digital
  57. Format settings                          : Dolby Surround EX
  58. Codec ID                                 : A_AC3
  59. Duration                                 : 1 h 54 min
  60. Bit rate mode                            : Constant
  61. Bit rate                                 : 640 kb/s
  62. Channel(s)                               : 6 channels
  63. Channel layout                           : L R C LFE Ls Rs
  64. Sampling rate                            : 48.0 kHz
  65. Frame rate                               : 31.250 FPS (1536 SPF)
  66. Compression mode                         : Lossy
  67. Delay relative to video                  : 417 ms
  68. Stream size                              : 524 MiB (3%)
  69. Language                                 : English
  70. Service kind                             : Complete Main
  71. Default                                  : No
  72. Forced                                   : No

  73. Audio #3
  74. ID                                       : 4
  75. Format                                   : AAC LC
  76. Format/Info                              : Advanced Audio Codec Low Complexity
  77. Codec ID                                 : A_AAC-2
  78. Duration                                 : 1 h 54 min
  79. Bit rate                                 : 96.0 kb/s
  80. Channel(s)                               : 2 channels
  81. Channel layout                           : L R
  82. Sampling rate                            : 48.0 kHz
  83. Frame rate                               : 46.875 FPS (1024 SPF)
  84. Compression mode                         : Lossy
  85. Delay relative to video                  : 9 ms
  86. Stream size                              : 79.4 MiB (0%)
  87. Language                                 : English
  88. Default                                  : No
  89. Forced                                   : No

  90. Text #1
  91. ID                                       : 5
  92. Format                                   : PGS
  93. Muxing mode                              : zlib
  94. Codec ID                                 : S_HDMV/PGS
  95. Codec ID/Info                            : Picture based subtitle format used on BDs/HD-DVDs
  96. Duration                                 : 1 h 46 min
  97. Bit rate                                 : 36.8 kb/s
  98. Count of elements                        : 2426
  99. Stream size                              : 28.1 MiB (0%)
  100. Title                                    : Vobsubs
  101. Language                                 : English
  102. Default                                  : No
  103. Forced                                   : No

  104. Text #2
  105. ID                                       : 6
  106. Format                                   : PGS
  107. Muxing mode                              : zlib
  108. Codec ID                                 : S_HDMV/PGS
  109. Codec ID/Info                            : Picture based subtitle format used on BDs/HD-DVDs
  110. Duration                                 : 1 h 51 min
  111. Bit rate                                 : 38.4 kb/s
  112. Count of elements                        : 2670
  113. Stream size                              : 30.7 MiB (0%)
  114. Title                                    : SDH
  115. Language                                 : English
  116. Default                                  : No
  117. Forced                                   : No

  118. Text #3
  119. ID                                       : 7
  120. Format                                   : PGS
  121. Muxing mode                              : zlib
  122. Codec ID                                 : S_HDMV/PGS
  123. Codec ID/Info                            : Picture based subtitle format used on BDs/HD-DVDs
  124. Duration                                 : 1 h 54 min
  125. Bit rate                                 : 60.2 kb/s
  126. Count of elements                        : 3150
  127. Stream size                              : 49.2 MiB (0%)
  128. Title                                    : Commentary
  129. Language                                 : English
  130. Default                                  : No
  131. Forced                                   : No

  132. Text #4
  133. ID                                       : 8
  134. Format                                   : PGS
  135. Muxing mode                              : zlib
  136. Codec ID                                 : S_HDMV/PGS
  137. Codec ID/Info                            : Picture based subtitle format used on BDs/HD-DVDs
  138. Duration                                 : 1 h 46 min
  139. Bit rate                                 : 38.1 kb/s
  140. Count of elements                        : 2434
  141. Stream size                              : 29.1 MiB (0%)
  142. Title                                    : Vobsubs
  143. Language                                 : German
  144. Default                                  : No
  145. Forced                                   : No

  146. Text #5
  147. ID                                       : 9
  148. Format                                   : PGS
  149. Muxing mode                              : zlib
  150. Codec ID                                 : S_HDMV/PGS
  151. Codec ID/Info                            : Picture based subtitle format used on BDs/HD-DVDs
  152. Duration                                 : 1 h 46 min
  153. Bit rate                                 : 40.1 kb/s
  154. Count of elements                        : 2552
  155. Stream size                              : 30.6 MiB (0%)
  156. Title                                    : SDH
  157. Language                                 : German
  158. Default                                  : No
  159. Forced                                   : No

  160. Text #6
  161. ID                                       : 10
  162. Format                                   : PGS
  163. Muxing mode                              : zlib
  164. Codec ID                                 : S_HDMV/PGS
  165. Codec ID/Info                            : Picture based subtitle format used on BDs/HD-DVDs
  166. Duration                                 : 1 h 54 min
  167. Bit rate                                 : 68.0 kb/s
  168. Count of elements                        : 3178
  169. Stream size                              : 55.6 MiB (0%)
  170. Title                                    : Commentary
  171. Language                                 : German
  172. Default                                  : No
  173. Forced                                   : No

  174. Text #7
  175. ID                                       : 11
  176. Format                                   : PGS
  177. Muxing mode                              : zlib
  178. Codec ID                                 : S_HDMV/PGS
  179. Codec ID/Info                            : Picture based subtitle format used on BDs/HD-DVDs
  180. Duration                                 : 36 min 53 s
  181. Bit rate                                 : 806 b/s
  182. Count of elements                        : 24
  183. Stream size                              : 218 KiB (0%)
  184. Title                                    : Forced
  185. Language                                 : German
  186. Default                                  : No
  187. Forced                                   : No

  188. Menu
  189. 00:00:00.000                             : en:00:00:00.000
  190. 00:04:26.933                             : en:00:04:26.933
  191. 00:06:52.120                             : en:00:06:52.120
  192. 00:10:29.671                             : en:00:10:29.671
  193. 00:14:34.499                             : en:00:14:34.499
  194. 00:16:57.433                             : en:00:16:57.433
  195. 00:21:38.506                             : en:00:21:38.506
  196. 00:24:15.954                             : en:00:24:15.954
  197. 00:27:34.570                             : en:00:27:34.570
  198. 00:34:10.924                             : en:00:34:10.924
  199. 00:40:00.773                             : en:00:40:00.773
  200. 00:45:21.135                             : en:00:45:21.135
  201. 00:50:40.704                             : en:00:50:40.704
  202. 00:54:51.205                             : en:00:54:51.205
  203. 01:01:12.878                             : en:01:01:12.878
  204. 01:08:06.582                             : en:01:08:06.582
  205. 01:13:17.852                             : en:01:13:17.852
  206. 01:17:53.752                             : en:01:17:53.752
  207. 01:22:24.064                             : en:01:22:24.064
  208. 01:25:49.603                             : en:01:25:49.603
  209. 01:30:55.992                             : en:01:30:55.992
  210. 01:35:22.967                             : en:01:35:22.967
  211. 01:38:16.974                             : en:01:38:16.974
  212. 01:42:14.295                             : en:01:42:14.295
  213. 01:48:33.799                             : en:01:48:33.799
复制代码





                                       
                                       

                                       
                                       
                                       




回复

使用道具 举报

懒得打字嘛,点击右侧快捷回复 【右侧内容,后台自定义】
您需要登录后才可以回帖 登录 | 立即加入

本版积分规则

Archiver|小黑屋| 蓝光电影网 |网站地图

Copyright © 2021 Comsenz Inc. Powered by 蓝光电影网

蓝光电影网

本站内容由用户自主分享和转载自互联网,转载目的在于传递更多信息,并不代表本网赞同其观点和对其真实性负责。

如有侵权、违反国家法律政策行为,请联系我们,我们会第一时间及时清除和处理!

举报反馈邮箱:[email protected]

快速回复 返回顶部 返回列表