找回密码

蓝光电影网

查看: 33|回复: 0

[惊悚] 人狼恶/狩猎追杀 Hunter.Hunter.2020.720p.BluRay.x264-PiGNUS 3.62GB

[复制链接]
蓝光币
426
发表于 2021-6-23 09:16:58 | 显示全部楼层 |阅读模式
[img][/img]

◎译  名 人狼恶/狩猎追杀
◎片  名 Hunter Hunter
◎年  代 2020
◎产  地 加拿大,美国
◎类  别 惊悚 / 可骇
◎语  言 英语
◎上映日期 2020-12-18(美国)
◎豆瓣评分 5.7/10 from 412 users
◎豆瓣链接 https://movie.douban.com/subject/35240766/
◎片  长 94分钟
◎导  演 肖恩·林登 Shawn Linden
◎编  剧 肖恩·林登 Shawn Linden
◎主  演 卡米尔·苏利文 Camille Sullivan
       Summer H. Howell Summer H. Howell
       戴文·萨瓦 Devon Sawa
       尼克·斯塔尔 Nick Stahl
       加布里埃尔·丹尼尔斯 Gabriel Daniels
       劳伦·科克伦 Lauren Cochrane
       杰德·迈克尔 Jade Michael
       埃里克·阿塔瓦尔 Erik Athavale
       卡尔·索达森 Karl Thordarson
       布莱克·泰勒 Blake Taylor
       萨拉·康斯提布尔 Sarah Constible
◎标  签 惊悚 | 血腥 | 犯罪 | 美国 | 2020 | 可骇 | 剧情 | 人性
◎简  介


  猎人一家三口在森林里避世隐居,遭到一只野狼的威胁。在搜捕这只狼的进程中,他们遭碰到了更加邪恶的生物,一个专门摧残女性的连环杀手.....
  1. Video
  2. ID                                       : 1
  3. Format                                   : AVC
  4. Format/Info                              : Advanced Video Codec
  5. Format profile                           : [email protected]
  6. Format settings                          : CABAC / 8 Ref Frames
  7. Format settings, CABAC                   : Yes
  8. Format settings, Reference frames        : 8 frames
  9. Codec ID                                 : V_MPEG4/ISO/AVC
  10. Duration                                 : 1 h 33 min
  11. Bit rate                                 : 4 901 kb/s
  12. Width                                    : 1 280 pixels
  13. Height                                   : 534 pixels
  14. Display aspect ratio                     : 2.40:1
  15. Frame rate mode                          : Constant
  16. Frame rate                               : 23.976 (24000/1001/189150) FPS
  17. Color space                              : YUV
  18. Chroma subsampling                       : 4:2:0
  19. Bit depth                                : 8 bits
  20. Scan type                                : Progressive
  21. Bits/(Pixel*Frame)                       : 0.299
  22. Stream size                              : 3.19 GiB (88%)
  23. Writing library                          : x264 core 163 r3059 b684ebe
  24. Encoding settings                        : cabac=1 / ref=8 / deblock=1:-3:-3 / analyse=0x3:0x133 / me=umh / subme=9 / psy=1 / psy_rd=1.00:0.00 / mixed_ref=1 / me_range=16 / chroma_me=1 / trellis=2 / 8x8dct=1 / cqm=0 / deadzone=21,11 / fast_pskip=1 / chroma_qp_offset=-2 / threads=17 / lookahead_threads=1 / sliced_threads=0 / nr=0 / decimate=1 / interlaced=0 / bluray_compat=0 / constrained_intra=0 / bframes=3 / b_pyramid=2 / b_adapt=2 / b_bias=0 / direct=3 / weightb=1 / open_gop=0 / weightp=2 / keyint=250 / keyint_min=23 / scenecut=40 / intra_refresh=0 / rc_lookahead=60 / rc=crf / mbtree=1 / crf=14.5 / qcomp=0.60 / qpmin=0 / qpmax=69 / qpstep=4 / ip_ratio=1.40 / aq=1:1.00
  25. Default                                  : Yes
  26. Forced                                   : No

  27. Audio
  28. ID                                       : 2
  29. Format                                   : AC-3
  30. Format/Info                              : Audio Coding 3
  31. Commercial name                          : Dolby Digital
  32. Codec ID                                 : A_AC3
  33. Duration                                 : 1 h 33 min
  34. Bit rate mode                            : Constant
  35. Bit rate                                 : 640 kb/s
  36. Channel(s)                               : 6 channels
  37. Channel layout                           : L R C LFE Ls Rs
  38. Sampling rate                            : 48.0 kHz
  39. Frame rate                               : 31.250 FPS (1536 SPF)
  40. Compression mode                         : Lossy
  41. Stream size                              : 426 MiB (12%)
  42. Language                                 : English
  43. Service kind                             : Complete Main
  44. Default                                  : Yes
  45. Forced                                   : No

  46. Text #1
  47. ID                                       : 3
  48. Format                                   : PGS
  49. Muxing mode                              : zlib
  50. Codec ID                                 : S_HDMV/PGS
  51. Codec ID/Info                            : Picture based subtitle format used on BDs/HD-DVDs
  52. Duration                                 : 1 h 30 min
  53. Bit rate                                 : 22.5 kb/s
  54. Count of elements                        : 1553
  55. Stream size                              : 14.6 MiB (0%)
  56. Title                                    : English SDH
  57. Language                                 : English
  58. Default                                  : No
  59. Forced                                   : No

  60. Text #2
  61. ID                                       : 4
  62. Format                                   : PGS
  63. Muxing mode                              : zlib
  64. Codec ID                                 : S_HDMV/PGS
  65. Codec ID/Info                            : Picture based subtitle format used on BDs/HD-DVDs
  66. Duration                                 : 1 h 27 min
  67. Bit rate                                 : 19.9 kb/s
  68. Count of elements                        : 1279
  69. Stream size                              : 12.4 MiB (0%)
  70. Title                                    : Spanish
  71. Language                                 : Spanish
  72. Default                                  : No
  73. Forced                                   : No

  74. Menu
  75. 00:00:00.000                             : Chapter 01
  76. 00:08:04.693                             : Chapter 02
  77. 00:16:31.407                             : Chapter 03
  78. 00:23:29.742                             : Chapter 04
  79. 00:30:48.847                             : Chapter 05
  80. 00:38:18.379                             : Chapter 06
  81. 00:45:41.739                             : Chapter 07
  82. 00:54:09.955                             : Chapter 08
  83. 01:00:42.848                             : Chapter 09
  84. 01:08:37.405                             : Chapter 10
  85. 01:16:06.771                             : Chapter 11
  86. 01:22:55.596                             : Chapter 12
  87. 01:33:07.207                             : Chapter 13
复制代码




                                       
                                       

                                       
                                       
                                       




回复

使用道具 举报

懒得打字嘛,点击右侧快捷回复 【右侧内容,后台自定义】
您需要登录后才可以回帖 登录 | 立即加入

本版积分规则

Archiver|小黑屋| 蓝光电影网 |网站地图

Copyright © 2021 Comsenz Inc. Powered by 蓝光电影网

蓝光电影网

本站内容由用户自主分享和转载自互联网,转载目的在于传递更多信息,并不代表本网赞同其观点和对其真实性负责。

如有侵权、违反国家法律政策行为,请联系我们,我们会第一时间及时清除和处理!

举报反馈邮箱:[email protected]

快速回复 返回顶部 返回列表