找回密码

蓝光电影网

查看: 23|回复: 0

[惊悚] 人狼恶/狩猎追杀 Hunter.Hunter.2020.720p.BluRay.x264.DTS-MT 3.43GB

[复制链接]
蓝光币
382
发表于 2021-6-21 10:30:53 | 显示全部楼层 |阅读模式


◎译  名 人狼恶/狩猎追杀
◎片  名 Hunter Hunter
◎年  代 2020
◎产  地 加拿大,美国
◎类  别 惊悚 / 可骇
◎语  言 英语
◎上映日期 2020-12-18(美国)
◎豆瓣评分 5.7/10 from 408 users
◎豆瓣链接 https://movie.douban.com/subject/35240766/
◎片  长 94分钟
◎导  演 肖恩·林登 Shawn Linden
◎编  剧 肖恩·林登 Shawn Linden
◎主  演 卡米尔·苏利文 Camille Sullivan
       Summer H. Howell Summer H. Howell
       戴文·萨瓦 Devon Sawa
       尼克·斯塔尔 Nick Stahl
       加布里埃尔·丹尼尔斯 Gabriel Daniels
       劳伦·科克伦 Lauren Cochrane
       杰德·迈克尔 Jade Michael
       埃里克·阿塔瓦尔 Erik Athavale
       卡尔·索达森 Karl Thordarson
       布莱克·泰勒 Blake Taylor
       萨拉·康斯提布尔 Sarah Constible
◎标  签 惊悚 | 血腥 | 犯罪 | 美国 | 2020 | 可骇 | 剧情 | 人性
◎简  介


  猎人一家三口在森林里避世隐居,遭到一只野狼的威胁。在搜捕这只狼的进程中,他们遭碰到了更加邪恶的生物,一个专门摧残女性的连环杀手.....
  1. Video
  2. ID                                       : 1
  3. Format                                   : AVC
  4. Format/Info                              : Advanced Video Codec
  5. Format profile                           : [email protected]
  6. Format settings                          : CABAC / 12 Ref Frames
  7. Format settings, CABAC                   : Yes
  8. Format settings, Reference frames        : 12 frames
  9. Codec ID                                 : V_MPEG4/ISO/AVC
  10. Duration                                 : 1 h 33 min
  11. Bit rate                                 : 3 758 kb/s
  12. Width                                    : 1 280 pixels
  13. Height                                   : 536 pixels
  14. Display aspect ratio                     : 2.40:1
  15. Frame rate mode                          : Constant
  16. Frame rate                               : 23.976 (24000/1001/189150) FPS
  17. Color space                              : YUV
  18. Chroma subsampling                       : 4:2:0
  19. Bit depth                                : 8 bits
  20. Scan type                                : Progressive
  21. Bits/(Pixel*Frame)                       : 0.228
  22. Stream size                              : 2.44 GiB (71%)
  23. Writing library                          : x264 core 157 r2938 2b00a84 [email protected] Mod
  24. Encoding settings                        : cabac=1 / ref=12 / deblock=1:-3:-3 / analyse=0x3:0x133 / me=umh / subme=10 / psy=1 / psy_rd=1.05:0.00 / mixed_ref=1 / me_range=32 / chroma_me=1 / trellis=2 / 8x8dct=1 / cqm=0 / deadzone=21,11 / fast_pskip=0 / chroma_qp_offset=-2 / threads=12 / lookahead_threads=2 / sliced_threads=0 / nr=0 / decimate=0 / interlaced=0 / bluray_compat=0 / constrained_intra=0 / bframes=8 / b_pyramid=2 / b_adapt=2 / b_bias=0 / direct=3 / weightb=1 / open_gop=0 / weightp=2 / keyint=250 / keyint_min=24 / scenecut=40 / intra_refresh=0 / rc_lookahead=250 / rc=crf / mbtree=0 / crf=16.8 / qcomp=0.60 / qpmin=0 / qpmax=69 / qpstep=4 / vbv_maxrate=62500 / vbv_bufsize=78125 / crf_max=0.0 / nal_hrd=none / filler=0 / ip_ratio=1.30 / pb_ratio=1.20 / aq=3:0.80
  25. Language                                 : English
  26. Default                                  : Yes
  27. Forced                                   : No
  28. Color range                              : Limited
  29. Color primaries                          : BT.709
  30. Matrix coefficients                      : BT.709
  31. Audio
  32. ID                                       : 2
  33. Format                                   : DTS
  34. Format/Info                              : Digital Theater Systems
  35. Codec ID                                 : A_DTS
  36. Duration                                 : 1 h 33 min
  37. Bit rate mode                            : Constant
  38. Bit rate                                 : 1 509 kb/s
  39. Channel(s)                               : 6 channels
  40. Channel layout                           : C L R Ls Rs LFE
  41. Sampling rate                            : 48.0 kHz
  42. Frame rate                               : 93.750 FPS (512 SPF)
  43. Bit depth                                : 24 bits
  44. Compression mode                         : Lossy
  45. Stream size                              : 1 005 MiB (29%)
  46. Language                                 : English
  47. Default                                  : Yes
  48. Forced                                   : No
  49. Text
  50. ID                                       : 3
  51. Format                                   : UTF-8
  52. Codec ID                                 : S_TEXT/UTF8
  53. Codec ID/Info                            : UTF-8 Plain Text
  54. Duration                                 : 1 h 26 min
  55. Bit rate                                 : 31 b/s
  56. Count of elements                        : 815
  57. Stream size                              : 19.7 KiB (0%)
  58. Title                                    : SRT
  59. Language                                 : English
  60. Default                                  : Yes
  61. Forced                                   : No
  62. Menu
  63. 00:00:00.000                             : Chapter 01
  64. 00:08:04.693                             : Chapter 02
  65. 00:16:31.407                             : Chapter 03
  66. 00:23:29.742                             : Chapter 04
  67. 00:30:48.847                             : Chapter 05
  68. 00:38:18.379                             : Chapter 06
  69. 00:45:41.739                             : Chapter 07
  70. 00:54:09.955                             : Chapter 08
  71. 01:00:42.848                             : Chapter 09
  72. 01:08:37.405                             : Chapter 10
  73. 01:16:06.771                             : Chapter 11
  74. 01:22:55.596                             : Chapter 12
复制代码







                                       
                                       

                                       
                                       
                                       




回复

使用道具 举报

懒得打字嘛,点击右侧快捷回复 【右侧内容,后台自定义】
您需要登录后才可以回帖 登录 | 立即加入

本版积分规则

Archiver|小黑屋| 蓝光电影网 |网站地图

Copyright © 2021 Comsenz Inc. Powered by 蓝光电影网

蓝光电影网

本站内容由用户自主分享和转载自互联网,转载目的在于传递更多信息,并不代表本网赞同其观点和对其真实性负责。

如有侵权、违反国家法律政策行为,请联系我们,我们会第一时间及时清除和处理!

举报反馈邮箱:[email protected]

快速回复 返回顶部 返回列表