找回密码

蓝光电影网

查看: 6|回复: 0

[喜剧] 少女大盗 The.Maiden.Heist.2009.1080p.BluRay.x264-LCHD 6.55GB

[复制链接]
蓝光币
382
发表于 2020-8-18 11:02:03 | 显示全部楼层 |阅读模式


◎译  名 少女大盗 / The Lonely Maiden / 初来乍盗 / 童贞大盗 / 孤独的少女
◎片  名 The Maiden Heist
◎年  代 2009
◎产  地 美国
◎类  别 笑剧 / 犯罪
◎语  言 英语
◎上映日期 2009-10-27(美国)
◎IMDb评分  6.1/10 from 15397 users
◎IMDb链接  https://www.imdb.com/title/tt1107860
◎豆瓣评分 6.8/10 from 4441 users
◎豆瓣链接 https://movie.douban.com/subject/2338068/
◎片  长 90 分钟
◎导  演 Peter Hewitt
◎编  剧 Michael LeSieur
◎主  演 Morgan Freeman
       Christopher Walken
       Marcia Gay Harden
       William H. Macy
       Wynn Everett
       Chuck Slavin

◎标  签 笑剧 | 美国 | MorganFreeman | 美国电影 | 犯罪 | 2009 | 电影 | 初来乍盗
◎简  介

  
  罗杰(克里斯托弗·沃肯 Christopher Walken 饰),查尔斯(摩根·弗里曼 Morgan Freeman 饰)和乔治(威廉姆·H·梅西 William H. Macy 饰)是三个同事多年的同事兼好友,三人均供职于一家历史悠久的博物馆。在冗长的光阴里,三个伙伴对馆里旦夕相伴的藏品发生了深厚的豪情,没想到,新上任的老板居然想要将现有的藏品全数转移。因而,三个老伙计一拍即合,决议要将被送走的文物偷返来。
  经过一番周密的策划,三人起头了他们的行动。可现实并没有他们所计划的那末顺遂,各类百般的意外让三人手忙脚乱,幸亏大大都都是有惊无险。他们的计划能否会被发现呢?行动又能否终极能以成功了结?
  1. Video
  2. ID                                       : 1
  3. Format                                   : AVC
  4. Format/Info                              : Advanced Video Codec
  5. Format profile                           : [email protected]
  6. Format settings                          : CABAC / 5 Ref Frames
  7. Format settings, CABAC                   : Yes
  8. Format settings, Reference frames        : 5 frames
  9. Codec ID                                 : V_MPEG4/ISO/AVC
  10. Duration                                 : 1 h 30 min
  11. Bit rate                                 : 8 884 kb/s
  12. Width                                    : 1 920 pixels
  13. Height                                   : 800 pixels
  14. Display aspect ratio                     : 2.40:1
  15. Frame rate mode                          : Constant
  16. Frame rate                               : 23.976 (24000/1001/189150) FPS
  17. Color space                              : YUV
  18. Chroma subsampling                       : 4:2:0
  19. Bit depth                                : 8 bits
  20. Scan type                                : Progressive
  21. Bits/(Pixel*Frame)                       : 0.241
  22. Stream size                              : 5.46 GiB (83%)
  23. Writing library                          : x264 core 95 r1592 95aacc4
  24. Encoding settings                        : cabac=1 / ref=5 / deblock=1:-1:-1 / analyse=0x3:0x113 / me=umh / subme=7 / psy=1 / psy_rd=1.00:0.00 / mixed_ref=1 / me_range=16 / chroma_me=1 / trellis=2 / 8x8dct=1 / cqm=0 / deadzone=21,11 / fast_pskip=1 / chroma_qp_offset=-2 / threads=6 / sliced_threads=0 / nr=0 / decimate=1 / interlaced=0 / constrained_intra=0 / bframes=3 / b_pyramid=2 / b_adapt=2 / b_bias=0 / direct=3 / weightb=1 / weightp=2 / keyint=250 / keyint_min=25 / scenecut=40 / intra_refresh=0 / rc_lookahead=40 / rc=2pass / mbtree=1 / bitrate=8884 / ratetol=1.0 / qcomp=0.60 / qpmin=10 / qpmax=51 / qpstep=4 / cplxblur=20.0 / qblur=0.5 / vbv_maxrate=50000 / vbv_bufsize=50000 / ip_ratio=1.40 / aq=1:1.00 / nal_hrd=none
  25. Language                                 : English
  26. Default                                  : Yes
  27. Forced                                   : Yes

  28. Audio
  29. ID                                       : 2
  30. Format                                   : DTS
  31. Format/Info                              : Digital Theater Systems
  32. Codec ID                                 : A_DTS
  33. Duration                                 : 1 h 30 min
  34. Bit rate mode                            : Constant
  35. Bit rate                                 : 1 509 kb/s
  36. Channel(s)                               : 6 channels
  37. Channel layout                           : C L R Ls Rs LFE
  38. Sampling rate                            : 48.0 kHz
  39. Frame rate                               : 93.750 FPS (512 SPF)
  40. Bit depth                                : 16 bits
  41. Compression mode                         : Lossy
  42. Stream size                              : 976 MiB (15%)
  43. Language                                 : English
  44. Default                                  : Yes
  45. Forced                                   : Yes
复制代码








                                       
                                       

                                       
                                       
                                       




回复

使用道具 举报

懒得打字嘛,点击右侧快捷回复 【右侧内容,后台自定义】
您需要登录后才可以回帖 登录 | 立即加入

本版积分规则

Archiver|小黑屋| 蓝光电影网 |网站地图

Copyright © 2021 Comsenz Inc. Powered by 蓝光电影网

蓝光电影网

本站内容由用户自主分享和转载自互联网,转载目的在于传递更多信息,并不代表本网赞同其观点和对其真实性负责。

如有侵权、违反国家法律政策行为,请联系我们,我们会第一时间及时清除和处理!

举报反馈邮箱:[email protected]

快速回复 返回顶部 返回列表