找回密码

蓝光电影网

查看: 50|回复: 0

[惊悚] 抓住稻草的野兽 Beasts.Clawing.at.Straws.2020.720p.BluRay.x264-YAMG 3.54GB

[复制链接]
蓝光币
515
发表于 2021-6-12 09:00:21 | 显示全部楼层 |阅读模式


◎译  名 捉住稻草的野兽/Beasts Clawing at Straws/Beasts That Cling to the Straw/病笃挣扎的野兽们/捉住拯救稻草的野兽们(台)/笼子里的野兽(港)
◎片  名 ?????? ?? ?? ???
◎年  代 2020
◎产  地 韩国
◎类  别 惊悚 / 犯罪
◎语  言 韩语
◎上映日期 2020-02-21(韩国)
◎豆瓣评分 7.0/10 from 16527 users
◎豆瓣链接 https://movie.douban.com/subject/30180781/
◎片  长 108分钟
◎导  演 金容勋 Yong-hoon Kim
◎编  剧 金容勋 Yong-hoon Kim / 曾根圭介 Keisuke Sone
◎主  演 全度妍 Do-yeon Jeon
       郑雨盛 Woo-sung Jung
       裴晟祐 Sung-Woo Bae
       尹汝贞 Yeo-jeong Yoon
       郑满植 Man-shik Jeong
       陈庆 Jin Gyeong
       申贤彬 Hyun-bin Shin
       郑家蓝 Ga-ram  Jung
       金俊翰 Joon-han Kim
       朴智焕 Park Ji-hwan
       许栋元 Heo Dong-won
       裴振雄 Jin-woong Bae
       林皓俊 Im Ho-joon
       李学周 Hak-joo Lee
       朴正民 Jeong-min Park
◎标  签 犯罪 | 韩国 | 悬疑 | 韩国电影 | 全度妍 | 剧情 | 2020 | 郑雨盛
◎简  介


  因失落的情人而欠债累累的泰荣(郑雨浓妆)、辛劳打工却只能委曲保持生存的一家之长忠万(裴成宇饰)、想要洗白曩昔而觊觎他人一切的妍希(全度妍饰),以及高利贷放贷者朴社长(郑满植饰)、因欠债而家庭破裂的美兰(申贤彬饰)、不法滞留者镇泰(郑家蓝饰)、一心为家人而活的英善(陈庆饰)、失忆的顺子(尹汝贞饰),所怀孕处窘境的这些人,都将一个钱袋视为自己人生的最初机遇,从而激发了连续串始料未及的事务。
◎获奖情况
  第41届韩国电影青龙奖 ?(2020)
  最好女配角(提名) 全度妍
  最好新人男演员(提名) 李学周
  最好新人女演员(提名) 申贤彬
  最好剪辑
  
  第49届鹿特丹国际电影节 ?(2020)
  山君奖出格声誉 金容勋
  山君奖(提名) 金容勋
  1. Video
  2. ID                                       : 1
  3. Format                                   : AVC
  4. Format/Info                              : Advanced Video Codec
  5. Format profile                           : [email protected]
  6. Format settings                          : CABAC / 12 Ref Frames
  7. Format settings, CABAC                   : Yes
  8. Format settings, Reference frames        : 12 frames
  9. Codec ID                                 : V_MPEG4/ISO/AVC
  10. Duration                                 : 1 h 48 min
  11. Bit rate                                 : 4 000 kb/s
  12. Width                                    : 1 280 pixels
  13. Height                                   : 536 pixels
  14. Display aspect ratio                     : 2.40:1
  15. Frame rate mode                          : Constant
  16. Frame rate                               : 24.000 FPS
  17. Color space                              : YUV
  18. Chroma subsampling                       : 4:2:0
  19. Bit depth                                : 8 bits
  20. Scan type                                : Progressive
  21. Bits/(Pixel*Frame)                       : 0.243
  22. Stream size                              : 3.04 GiB (86%)
  23. Writing library                          : x264 core 161 r3053 c347e7a
  24. Encoding settings                        : cabac=1 / ref=12 / deblock=1:-3:-3 / analyse=0x3:0x133 / me=umh / subme=10 / psy=1 / psy_rd=1.00:0.00 / mixed_ref=1 / me_range=32 / chroma_me=1 / trellis=2 / 8x8dct=1 / cqm=0 / deadzone=21,11 / fast_pskip=0 / chroma_qp_offset=-2 / threads=17 / lookahead_threads=2 / sliced_threads=0 / nr=0 / decimate=0 / interlaced=0 / bluray_compat=0 / constrained_intra=0 / bframes=8 / b_pyramid=2 / b_adapt=2 / b_bias=0 / direct=3 / weightb=1 / open_gop=0 / weightp=2 / keyint=250 / keyint_min=24 / scenecut=40 / intra_refresh=0 / rc=crf / mbtree=0 / crf=16.0 / qcomp=0.60 / qpmin=0 / qpmax=69 / qpstep=4 / ip_ratio=1.40 / pb_ratio=1.30 / aq=3:0.60
  25. Language                                 : English
  26. Default                                  : Yes
  27. Forced                                   : No
  28. Color range                              : Limited
  29. Matrix coefficients                      : BT.709

  30. Audio
  31. ID                                       : 2
  32. Format                                   : AC-3
  33. Format/Info                              : Audio Coding 3
  34. Commercial name                          : Dolby Digital
  35. Format settings                          : Dolby Surround EX
  36. Codec ID                                 : A_AC3
  37. Duration                                 : 1 h 48 min
  38. Bit rate mode                            : Constant
  39. Bit rate                                 : 640 kb/s
  40. Channel(s)                               : 6 channels
  41. Channel layout                           : L R C LFE Ls Rs
  42. Sampling rate                            : 48.0 kHz
  43. Frame rate                               : 31.250 FPS (1536 SPF)
  44. Compression mode                         : Lossy
  45. Stream size                              : 498 MiB (14%)
  46. Title                                    : Korean
  47. Language                                 : Korean
  48. Service kind                             : Complete Main
  49. Default                                  : Yes
  50. Forced                                   : No

  51. Text #1
  52. ID                                       : 3
  53. Format                                   : UTF-8
  54. Codec ID                                 : S_TEXT/UTF8
  55. Codec ID/Info                            : UTF-8 Plain Text
  56. Duration                                 : 1 h 41 min
  57. Bit rate                                 : 39 b/s
  58. Count of elements                        : 1242
  59. Stream size                              : 29.7 KiB (0%)
  60. Title                                    : English Forced
  61. Language                                 : English
  62. Default                                  : Yes
  63. Forced                                   : Yes

  64. Text #2
  65. ID                                       : 4
  66. Format                                   : PGS
  67. Muxing mode                              : zlib
  68. Codec ID                                 : S_HDMV/PGS
  69. Codec ID/Info                            : Picture based subtitle format used on BDs/HD-DVDs
  70. Duration                                 : 1 h 41 min
  71. Bit rate                                 : 26.3 kb/s
  72. Count of elements                        : 2254
  73. Stream size                              : 19.1 MiB (1%)
  74. Title                                    : English Forced PGS
  75. Language                                 : English
  76. Default                                  : No
  77. Forced                                   : No

  78. Text #3
  79. ID                                       : 5
  80. Format                                   : PGS
  81. Muxing mode                              : zlib
  82. Codec ID                                 : S_HDMV/PGS
  83. Codec ID/Info                            : Picture based subtitle format used on BDs/HD-DVDs
  84. Duration                                 : 1 h 41 min
  85. Bit rate                                 : 27.1 kb/s
  86. Count of elements                        : 2254
  87. Stream size                              : 19.7 MiB (1%)
  88. Title                                    : Traditional Chinese PGS
  89. Language                                 : Chinese
  90. Default                                  : No
  91. Forced                                   : No

  92. Menu
  93. 00:00:00.000                             : Chapter 01
  94. 00:06:26.208                             : Chapter 02
  95. 00:10:31.042                             : Chapter 03
  96. 00:15:19.750                             : Chapter 04
  97. 00:20:16.208                             : Chapter 05
  98. 00:23:49.042                             : Chapter 06
  99. 00:27:51.625                             : Chapter 07
  100. 00:31:01.917                             : Chapter 08
  101. 00:39:34.708                             : Chapter 09
  102. 00:43:58.083                             : Chapter 10
  103. 00:49:03.042                             : Chapter 11
  104. 00:56:49.250                             : Chapter 12
  105. 01:02:44.625                             : Chapter 13
  106. 01:06:27.583                             : Chapter 14
  107. 01:16:26.375                             : Chapter 15
  108. 01:22:36.208                             : Chapter 16
  109. 01:26:40.458                             : Chapter 17
  110. 01:31:54.458                             : Chapter 18
  111. 01:37:55.083                             : Chapter 19
  112. 01:41:29.833                             : Chapter 20
复制代码





                                       
                                       

                                       
                                       
                                       




回复

使用道具 举报

懒得打字嘛,点击右侧快捷回复 【右侧内容,后台自定义】
您需要登录后才可以回帖 登录 | 立即加入

本版积分规则

Archiver|小黑屋| 蓝光电影网 |网站地图

Copyright © 2021 Comsenz Inc. Powered by 蓝光电影网

蓝光电影网

本站内容由用户自主分享和转载自互联网,转载目的在于传递更多信息,并不代表本网赞同其观点和对其真实性负责。

如有侵权、违反国家法律政策行为,请联系我们,我们会第一时间及时清除和处理!

举报反馈邮箱:[email protected]

快速回复 返回顶部 返回列表