找回密码

蓝光电影网

查看: 44|回复: 0

[动作] 少林木人巷 Shaolin.Wooden.Men.1976.720p.BluRay.x264-USURY 5.83GB

[复制链接]
蓝光币
515
发表于 2020-11-20 08:43:27 | 显示全部楼层 |阅读模式


◎译  名 Shaolin Chamber of Death/Shaolin Wooden Men
◎片  名 少林木人巷
◎年  代 1976
◎产  地 中国香港
◎类  别 行动
◎语  言 汉语普通话
◎上映日期 1976-11-10
◎IMDb评分  6.5/10 from 2015 users
◎IMDb链接  https://www.imdb.com/title/tt0075201/
◎豆瓣评分 6.5/10 from 2868 users
◎豆瓣链接 https://movie.douban.com/subject/1400869/
◎片  长 USA: 98 分钟
◎导  演 陈志华 Chi-Hwa Chen
◎主  演 成龙 Jackie Chan
       黄正利 Jang Lee Hwang
       元彪 Biao Yuen
       苗天 Tien Miao
       龙君儿 Doris Lung Chun-Erh
       张冰玉 Ping-Yu Chang
       李笑丛 Hsiao Chung Li
       何刚 Kang Ho
◎标  签 成龙 | 行动 | 香港 | 香港电影 | 武侠 | 1976 | 笑剧 | 电影
◎简  介


  少林哑徒弟(成龙 饰)为了报杀父之仇而学武,从挑水砍柴做起,苦熬内功根本,打出木人巷学成武功的情形不时出现在他的梦中,父亲被害的惨状和旅居少林的五枚师太的开解令他在疲乏时咬紧牙关对峙。哑徒弟在少林禁地发现了被锁住的老怪人法愚,法愚不似少林僧人,但有感于哑徒弟的照顾,法愚指导尚不具有进修少林武术资历的哑徒弟武功,时代哑徒弟师兄闯入木人巷却气力不济兴高采烈。五枚师太见单独温习武功的哑徒弟出招狠辣,随教授蛇翼八步伐理其心性,经法愚调教,哑徒弟成功打出木人巷,得以学成下山,法愚令其照顾信物联络江湖帮派,激发江湖搏杀,而哑徒弟又发现了法愚的实在身份……
  1. Video
  2. ID                                       : 1
  3. Format                                   : AVC
  4. Format/Info                              : Advanced Video Codec
  5. Format profile                           : [email protected]
  6. Format settings                          : CABAC / 12 Ref Frames
  7. Format settings, CABAC                   : Yes
  8. Format settings, Reference frames        : 12 frames
  9. Codec ID                                 : V_MPEG4/ISO/AVC
  10. Duration                                 : 1 h 47 min
  11. Bit rate                                 : 6 437 kb/s
  12. Width                                    : 1 280 pixels
  13. Height                                   : 536 pixels
  14. Display aspect ratio                     : 2.40:1
  15. Frame rate mode                          : Constant
  16. Frame rate                               : 23.976 (24000/1001/189150) FPS
  17. Color space                              : YUV
  18. Chroma subsampling                       : 4:2:0
  19. Bit depth                                : 8 bits
  20. Scan type                                : Progressive
  21. Bits/(Pixel*Frame)                       : 0.391
  22. Stream size                              : 4.84 GiB (83%)
  23. Writing library                          : x264 core 161 r3027 4121277
  24. Encoding settings                        : cabac=1 / ref=12 / deblock=1:-3:-3 / analyse=0x3:0x133 / me=umh / subme=10 / psy=1 / psy_rd=1.00:0.15 / mixed_ref=1 / me_range=24 / chroma_me=1 / trellis=2 / 8x8dct=1 / cqm=0 / deadzone=21,11 / fast_pskip=1 / chroma_qp_offset=-3 / threads=17 / lookahead_threads=2 / sliced_threads=0 / nr=0 / decimate=1 / interlaced=0 / bluray_compat=0 / constrained_intra=0 / bframes=8 / b_pyramid=2 / b_adapt=2 / b_bias=0 / direct=3 / weightb=1 / open_gop=0 / weightp=2 / keyint=250 / keyint_min=23 / scenecut=40 / intra_refresh=0 / rc_lookahead=60 / rc=crf / mbtree=1 / crf=17.0 / qcomp=0.60 / qpmin=0 / qpmax=69 / qpstep=4 / ip_ratio=1.40 / aq=3:0.50
  25. Language                                 : English
  26. Default                                  : Yes
  27. Forced                                   : No
  28. Color range                              : Limited
  29. Matrix coefficients                      : BT.709

  30. Audio #1
  31. ID                                       : 2
  32. Format                                   : FLAC
  33. Format/Info                              : Free Lossless Audio Codec
  34. Codec ID                                 : A_FLAC
  35. Duration                                 : 1 h 47 min
  36. Bit rate mode                            : Variable
  37. Bit rate                                 : 286 kb/s
  38. Channel(s)                               : 2 channels
  39. Channel layout                           : L R
  40. Sampling rate                            : 48.0 kHz
  41. Frame rate                               : 11.719 FPS (4096 SPF)
  42. Bit depth                                : 16 bits
  43. Compression mode                         : Lossless
  44. Stream size                              : 220 MiB (4%)
  45. Title                                    : Mandarin
  46. Writing library                          : libFLAC 1.2.1 (UTC 2007-09-17)
  47. Language                                 : Chinese
  48. Default                                  : Yes
  49. Forced                                   : No

  50. Audio #2
  51. ID                                       : 3
  52. Format                                   : FLAC
  53. Format/Info                              : Free Lossless Audio Codec
  54. Codec ID                                 : A_FLAC
  55. Duration                                 : 1 h 47 min
  56. Bit rate mode                            : Variable
  57. Bit rate                                 : 339 kb/s
  58. Channel(s)                               : 2 channels
  59. Channel layout                           : L R
  60. Sampling rate                            : 48.0 kHz
  61. Frame rate                               : 11.719 FPS (4096 SPF)
  62. Bit depth                                : 16 bits
  63. Compression mode                         : Lossless
  64. Stream size                              : 261 MiB (4%)
  65. Title                                    : English
  66. Writing library                          : libFLAC 1.2.1 (UTC 2007-09-17)
  67. Language                                 : English
  68. Default                                  : No
  69. Forced                                   : No

  70. Audio #3
  71. ID                                       : 4
  72. Format                                   : FLAC
  73. Format/Info                              : Free Lossless Audio Codec
  74. Codec ID                                 : A_FLAC
  75. Duration                                 : 1 h 47 min
  76. Bit rate mode                            : Variable
  77. Bit rate                                 : 234 kb/s
  78. Channel(s)                               : 2 channels
  79. Channel layout                           : L R
  80. Sampling rate                            : 48.0 kHz
  81. Frame rate                               : 11.719 FPS (4096 SPF)
  82. Bit depth                                : 16 bits
  83. Compression mode                         : Lossless
  84. Stream size                              : 180 MiB (3%)
  85. Title                                    : Cantonese
  86. Writing library                          : libFLAC 1.2.1 (UTC 2007-09-17)
  87. Language                                 : Chinese
  88. Default                                  : No
  89. Forced                                   : No

  90. Audio #4
  91. ID                                       : 5
  92. Format                                   : FLAC
  93. Format/Info                              : Free Lossless Audio Codec
  94. Codec ID                                 : A_FLAC
  95. Duration                                 : 1 h 47 min
  96. Bit rate mode                            : Variable
  97. Bit rate                                 : 234 kb/s
  98. Channel(s)                               : 2 channels
  99. Channel layout                           : L R
  100. Sampling rate                            : 48.0 kHz
  101. Frame rate                               : 11.719 FPS (4096 SPF)
  102. Bit depth                                : 16 bits
  103. Compression mode                         : Lossless
  104. Stream size                              : 180 MiB (3%)
  105. Title                                    : Cantonese (Alternate Version)
  106. Writing library                          : libFLAC 1.2.1 (UTC 2007-09-17)
  107. Language                                 : Chinese
  108. Default                                  : No
  109. Forced                                   : No

  110. Audio #5
  111. ID                                       : 6
  112. Format                                   : AAC LC
  113. Format/Info                              : Advanced Audio Codec Low Complexity
  114. Codec ID                                 : A_AAC-2
  115. Duration                                 : 1 h 47 min
  116. Bit rate                                 : 92.5 kb/s
  117. Channel(s)                               : 2 channels
  118. Channel layout                           : L R
  119. Sampling rate                            : 48.0 kHz
  120. Frame rate                               : 46.875 FPS (1024 SPF)
  121. Compression mode                         : Lossy
  122. Delay relative to video                  : 9 ms
  123. Stream size                              : 71.3 MiB (1%)
  124. Title                                    : English Commentary by Mike Leeder and Arne Venema
  125. Language                                 : English
  126. Default                                  : No
  127. Forced                                   : No

  128. Audio #6
  129. ID                                       : 7
  130. Format                                   : AAC LC
  131. Format/Info                              : Advanced Audio Codec Low Complexity
  132. Codec ID                                 : A_AAC-2
  133. Duration                                 : 1 h 47 min
  134. Bit rate                                 : 87.2 kb/s
  135. Channel(s)                               : 2 channels
  136. Channel layout                           : L R
  137. Sampling rate                            : 48.0 kHz
  138. Frame rate                               : 46.875 FPS (1024 SPF)
  139. Compression mode                         : Lossy
  140. Delay relative to video                  : 9 ms
  141. Stream size                              : 67.1 MiB (1%)
  142. Title                                    : English Commentary by Brandon Bentley
  143. Language                                 : English
  144. Default                                  : No
  145. Forced                                   : No

  146. Text #1
  147. ID                                       : 8
  148. Format                                   : UTF-8
  149. Codec ID                                 : S_TEXT/UTF8
  150. Codec ID/Info                            : UTF-8 Plain Text
  151. Duration                                 : 1 h 46 min
  152. Bit rate                                 : 35 b/s
  153. Count of elements                        : 788
  154. Stream size                              : 27.4 KiB (0%)
  155. Title                                    : English
  156. Language                                 : English
  157. Default                                  : Yes
  158. Forced                                   : Yes

  159. Text #2
  160. ID                                       : 9
  161. Format                                   : PGS
  162. Muxing mode                              : zlib
  163. Codec ID                                 : S_HDMV/PGS
  164. Codec ID/Info                            : Picture based subtitle format used on BDs/HD-DVDs
  165. Duration                                 : 1 h 46 min
  166. Bit rate                                 : 18.0 kb/s
  167. Count of elements                        : 1576
  168. Stream size                              : 13.7 MiB (0%)
  169. Title                                    : English
  170. Language                                 : English
  171. Default                                  : No
  172. Forced                                   : No

  173. Text #3
  174. ID                                       : 10
  175. Format                                   : UTF-8
  176. Codec ID                                 : S_TEXT/UTF8
  177. Codec ID/Info                            : UTF-8 Plain Text
  178. Duration                                 : 1 h 46 min
  179. Bit rate                                 : 1 b/s
  180. Count of elements                        : 41
  181. Stream size                              : 1.10 KiB (0%)
  182. Title                                    : English forced
  183. Language                                 : English
  184. Default                                  : No
  185. Forced                                   : No

  186. Text #4
  187. ID                                       : 11
  188. Format                                   : PGS
  189. Muxing mode                              : zlib
  190. Codec ID                                 : S_HDMV/PGS
  191. Codec ID/Info                            : Picture based subtitle format used on BDs/HD-DVDs
  192. Duration                                 : 1 h 46 min
  193. Bit rate                                 : 829 b/s
  194. Count of elements                        : 82
  195. Stream size                              : 646 KiB (0%)
  196. Title                                    : English forced
  197. Language                                 : English
  198. Default                                  : No
  199. Forced                                   : No

  200. Text #5
  201. ID                                       : 12
  202. Format                                   : UTF-8
  203. Codec ID                                 : S_TEXT/UTF8
  204. Codec ID/Info                            : UTF-8 Plain Text
  205. Duration                                 : 1 h 46 min
  206. Bit rate                                 : 34 b/s
  207. Count of elements                        : 784
  208. Stream size                              : 27.1 KiB (0%)
  209. Title                                    : English (for Cantonese tracks)
  210. Language                                 : English
  211. Default                                  : No
  212. Forced                                   : No

  213. Text #6
  214. ID                                       : 13
  215. Format                                   : PGS
  216. Muxing mode                              : zlib
  217. Codec ID                                 : S_HDMV/PGS
  218. Codec ID/Info                            : Picture based subtitle format used on BDs/HD-DVDs
  219. Duration                                 : 1 h 46 min
  220. Bit rate                                 : 17.8 kb/s
  221. Count of elements                        : 1568
  222. Stream size                              : 13.6 MiB (0%)
  223. Title                                    : English (for Cantonese tracks)
  224. Language                                 : English
  225. Default                                  : No
  226. Forced                                   : No

  227. Menu
  228. 00:00:00.000                             : en:00:00:00.000
  229. 00:09:44.793                             : en:00:09:44.793
  230. 00:20:11.419                             : en:00:20:11.419
  231. 00:30:58.732                             : en:00:30:58.732
  232. 00:39:29.993                             : en:00:39:29.993
  233. 00:48:26.821                             : en:00:48:26.821
  234. 00:56:33.724                             : en:00:56:33.724
  235. 01:04:43.713                             : en:01:04:43.713
  236. 01:14:58.285                             : en:01:14:58.285
  237. 01:22:52.759                             : en:01:22:52.759
  238. 01:30:09.029                             : en:01:30:09.029
  239. 01:38:45.795                             : en:01:38:45.795
复制代码



                                       
                                       

                                       
                                       
                                       




回复

使用道具 举报

懒得打字嘛,点击右侧快捷回复 【右侧内容,后台自定义】
您需要登录后才可以回帖 登录 | 立即加入

本版积分规则

Archiver|小黑屋| 蓝光电影网 |网站地图

Copyright © 2021 Comsenz Inc. Powered by 蓝光电影网

蓝光电影网

本站内容由用户自主分享和转载自互联网,转载目的在于传递更多信息,并不代表本网赞同其观点和对其真实性负责。

如有侵权、违反国家法律政策行为,请联系我们,我们会第一时间及时清除和处理!

举报反馈邮箱:[email protected]

快速回复 返回顶部 返回列表