找回密码

蓝光电影网

查看: 27|回复: 0

[动作] 釜山行2:半岛 Train.to.Busan.2.Peninsula.2020.KOREAN.720p.BluRay.x264.DTS-MT 5.32GB

[复制链接]
蓝光币
382
发表于 2020-11-15 23:52:25 | 显示全部楼层 |阅读模式


◎译  名 釜山行2:半岛/Peninsula/Train to Busan 2/半岛/尸杀半岛(港)/尸速列车:传染半岛(台)/釜山行2
◎片  名 ???2-??
◎年  代 2020
◎产  地 韩国
◎类  别 行动 / 惊悚
◎语  言 韩语,英语,粤语
◎上映日期 2020-07-15(韩国)
◎IMDb评分  5.4/10 from 14880 users
◎IMDb链接  https://www.imdb.com/title/tt8850222/
◎豆瓣评分 5.1/10 from 85030 users
◎豆瓣链接 https://movie.douban.com/subject/30299515/
◎片  长 115分钟
◎导  演 延尚昊 Sang-ho Yeon
◎编  剧 延尚昊 Sang-ho Yeon
◎主  演 姜栋元 Dong-won Kang
       李贞贤 Jung-hyun Lee
       权海骁 Hae-hyo Kwon
       李来 Re Lee
       金敏载 Kim Min-jae
       具教焕 Gu Kyohwan
       金度允 Do-yoon Kim
       李艺媛 Ye-won Lee
       文宇振 Woo-jin Moon
       金丹菲 Dan-bi Kim
◎标  签 丧尸 | 灾难 | 韩国 | 韩国电影 | 可骇 | 人性 | 2020 | 电影
◎简  介


  上集列车驶往釜山后,丧尸病毒瞬间全国爆发,4年后的韩国尸毒遍野,被全球孤立,沦为死城。所馀无几的生还者踏上最初一艘难民船,分开被众人抛弃的朝鲜半岛。退伍甲士正锡(姜栋元 饰)和家人有幸登上难民船,但一上船便发现丧尸潜伏,幸得香港收留,这批韩国人材得以登陆,以「半岛难民」成分在香港重新生活。但正锡受不住金钱引诱,加入了一个返国窃取巨额美金的行动。他和队友重返韩国,居然发现仍有一班未受尸毒传染的人在挣扎求存,正锡决议带这班倖存者逃生,他们最初能否成功逃出尸杀半岛?
◎获奖情况
  第73届戛纳电影节 ?(2020)
  入选过戛纳导演作品(提名)
  
  第41届韩国电影青龙奖 ?(2020)
  最好导演(提名) 延尚昊
  最好女配角(提名) 李来
  最好美术(提名)
  最好照明(提名)
  技术奖(提名)
  1. Video
  2. ID                                       : 1
  3. Format                                   : AVC
  4. Format/Info                              : Advanced Video Codec
  5. Format profile                           : [email protected]
  6. Format settings                          : CABAC / 12 Ref Frames
  7. Format settings, CABAC                   : Yes
  8. Format settings, Reference frames        : 12 frames
  9. Codec ID                                 : V_MPEG4/ISO/AVC
  10. Duration                                 : 1 h 55 min
  11. Bit rate                                 : 3 550 kb/s
  12. Width                                    : 1 280 pixels
  13. Height                                   : 536 pixels
  14. Display aspect ratio                     : 2.40:1
  15. Frame rate mode                          : Constant
  16. Frame rate                               : 24.000 FPS
  17. Color space                              : YUV
  18. Chroma subsampling                       : 4:2:0
  19. Bit depth                                : 8 bits
  20. Scan type                                : Progressive
  21. Bits/(Pixel*Frame)                       : 0.216
  22. Stream size                              : 2.87 GiB (54%)
  23. Writing library                          : x264 core 157 r2938 2b00a84 [email protected] Mod
  24. Encoding settings                        : cabac=1 / ref=12 / deblock=1:-3:-3 / analyse=0x3:0x133 / me=umh / subme=10 / psy=1 / psy_rd=1.05:0.00 / mixed_ref=1 / me_range=32 / chroma_me=1 / trellis=2 / 8x8dct=1 / cqm=0 / deadzone=21,11 / fast_pskip=0 / chroma_qp_offset=-2 / threads=12 / lookahead_threads=2 / sliced_threads=0 / nr=0 / decimate=0 / interlaced=0 / bluray_compat=0 / constrained_intra=0 / bframes=8 / b_pyramid=2 / b_adapt=2 / b_bias=0 / direct=3 / weightb=1 / open_gop=0 / weightp=2 / keyint=250 / keyint_min=24 / scenecut=40 / intra_refresh=0 / rc_lookahead=250 / rc=crf / mbtree=0 / crf=16.8 / qcomp=0.60 / qpmin=0 / qpmax=69 / qpstep=4 / vbv_maxrate=62500 / vbv_bufsize=78125 / crf_max=0.0 / nal_hrd=none / filler=0 / ip_ratio=1.30 / pb_ratio=1.20 / aq=3:0.80
  25. Language                                 : English
  26. Default                                  : Yes
  27. Forced                                   : No
  28. Color range                              : Limited
  29. Color primaries                          : BT.709
  30. Matrix coefficients                      : BT.709
  31. Audio #1
  32. ID                                       : 2
  33. Format                                   : DTS
  34. Format/Info                              : Digital Theater Systems
  35. Codec ID                                 : A_DTS
  36. Duration                                 : 1 h 55 min
  37. Bit rate mode                            : Constant
  38. Bit rate                                 : 1 509 kb/s
  39. Channel(s)                               : 6 channels
  40. Channel layout                           : C L R Ls Rs LFE
  41. Sampling rate                            : 48.0 kHz
  42. Frame rate                               : 93.750 FPS (512 SPF)
  43. Bit depth                                : 24 bits
  44. Compression mode                         : Lossy
  45. Stream size                              : 1.22 GiB (23%)
  46. Language                                 : Korean
  47. Default                                  : Yes
  48. Forced                                   : No
  49. Audio #2
  50. ID                                       : 3
  51. Format                                   : DTS
  52. Format/Info                              : Digital Theater Systems
  53. Codec ID                                 : A_DTS
  54. Duration                                 : 1 h 55 min
  55. Bit rate mode                            : Constant
  56. Bit rate                                 : 1 509 kb/s
  57. Channel(s)                               : 6 channels
  58. Channel layout                           : C L R Ls Rs LFE
  59. Sampling rate                            : 48.0 kHz
  60. Frame rate                               : 93.750 FPS (512 SPF)
  61. Bit depth                                : 16 bits
  62. Compression mode                         : Lossy
  63. Stream size                              : 1.22 GiB (23%)
  64. Language                                 : English
  65. Default                                  : No
  66. Forced                                   : No
  67. Text
  68. ID                                       : 4
  69. Format                                   : UTF-8
  70. Codec ID                                 : S_TEXT/UTF8
  71. Codec ID/Info                            : UTF-8 Plain Text
  72. Duration                                 : 1 h 49 min
  73. Bit rate                                 : 30 b/s
  74. Count of elements                        : 1011
  75. Stream size                              : 24.2 KiB (0%)
  76. Language                                 : English
  77. Default                                  : Yes
  78. Forced                                   : No
  79. Menu
  80. 00:00:00.000                             : en:Chapter 01
  81. 00:09:45.542                             : en:Chapter 02
  82. 00:18:59.542                             : en:Chapter 03
  83. 00:27:25.458                             : en:Chapter 04
  84. 00:39:40.542                             : en:Chapter 05
  85. 00:46:31.958                             : en:Chapter 06
  86. 00:58:44.500                             : en:Chapter 07
  87. 01:08:44.708                             : en:Chapter 08
  88. 01:18:08.333                             : en:Chapter 09
  89. 01:29:02.333                             : en:Chapter 10
  90. 01:39:40.917                             : en:Chapter 11
  91. 01:51:12.083                             : en:Chapter 12
复制代码






                                       
                                       

                                       
                                       
                                       




回复

使用道具 举报

懒得打字嘛,点击右侧快捷回复 【右侧内容,后台自定义】
您需要登录后才可以回帖 登录 | 立即加入

本版积分规则

Archiver|小黑屋| 蓝光电影网 |网站地图

Copyright © 2021 Comsenz Inc. Powered by 蓝光电影网

蓝光电影网

本站内容由用户自主分享和转载自互联网,转载目的在于传递更多信息,并不代表本网赞同其观点和对其真实性负责。

如有侵权、违反国家法律政策行为,请联系我们,我们会第一时间及时清除和处理!

举报反馈邮箱:[email protected]

快速回复 返回顶部 返回列表